Panic Room 2002 x264 720p Esub BluRay Dual Audio English Hindi GOPI SAHI

Panic Room (2002)

 
 
A divorced woman and her diabetic daughter take refuge in their newly-purchased house's safe room, when three men break-in, searching for a missing fortune.
EN

Director:

David Fincher

Writer:

David Koepp
 
6.8/10
254,350

 

Directed byDavid Fincher
Produced by
Written byDavid Koepp
Starring
Music byHoward Shore
Cinematography
Edited by
Production
companies
Distributed bySony Pictures Releasing
Release date
  • March 29, 2002
Running time
112 minutes
CountryUnited States
LanguageEnglish
Budget$48 million
Box office$197.1 million

 


Panic Room 2002 x264 720p Esub BluRay Dual Audio English Hindi GOPI SAHI

Format                         : Matroska
Format version                 : Version 4
File size                      : 1.03 GiB
Duration                       : 1 h 51 min
Overall bit rate               : 1 320 kb/s
Movie name                     : Panic Room 2002 GOPISAHI
Encoded date                   : UTC 2017-08-15 06:55:48


Video
ID                             : 1
Format                         : AVC
Format/Info                    : Advanced Video Codec
Format profile                 : [email protected]
Format settings                : CABAC / 5 Ref Frames
Format settings, CABAC         : Yes
Format settings, Reference fra : 5 frames
Codec ID                       : V_MPEG4/ISO/AVC
Duration                       : 1 h 51 min
Bit rate                       : 999 kb/s
Width                          : 1 280 pixels
Height                         : 534 pixels
Display aspect ratio           : 2.40:1
Frame rate mode                : Constant
Frame rate                     : 23.976 (24000/1001) FPS
Color space                    : YUV
Chroma subsampling             : 4:2:0
Bit depth                      : 8 bits
Scan type                      : Progressive
Bits/(Pixel*Frame)             : 0.061
Stream size                    : 799 MiB (76%)
Title                          : GOPISAHI
Writing library                : x264 core 146 r2538 121396c

Audio #1
ID                             : 2
Format                         : AC-3
Format/Info                    : Audio Coding 3
Commercial name                : Dolby Digital
Codec ID                       : A_AC3
Duration                       : 1 h 51 min
Bit rate mode                  : Constant
Bit rate                       : 224 kb/s
Channel(s)                     : 2 channels
Channel layout                 : L R
Sampling rate                  : 48.0 kHz
Frame rate                     : 31.250 FPS (1536 SPF)
Compression mode               : Lossy
Delay relative to video        : 250 ms
Stream size                    : 179 MiB (17%)
Title                          : GOPISAHI
Language                       : Hindi
Service kind                   : Complete Main
Default                        : Yes
Forced                         : Yes

Audio #2
ID                             : 3
Format                         : AAC LC
Format/Info                    : Advanced Audio Codec Low Complexity
Codec ID                       : A_AAC-2
Duration                       : 1 h 51 min
Bit rate                       : 96.0 kb/s
Channel(s)                     : 2 channels
Channel layout                 : L R
Sampling rate                  : 48.0 kHz
Frame rate                     : 46.875 FPS (1024 SPF)
Compression mode               : Lossy
Delay relative to video        : -1 s 991 ms
Stream size                    : 76.8 MiB (7%)
Title                          : GOPISAHI
Language                       : English
Default                        : No
Forced                         : No

Text
ID                             : 4
Format                         : UTF-8
Codec ID                       : S_TEXT/UTF8
Codec ID/Info                  : UTF-8 Plain Text
Duration                       : 1 h 46 min
Bit rate                       : 37 b/s
Count of elements              : 969
Stream size                    : 29.5 KiB (0%)
Title                          : GOPISAHI
Language                       : English
Default                        : Yes
Forced                         : Yes




 
 

Post a Comment

0 Comments