Ray 2004 x264 720p Esub BluRay Dual Audio English Hindi GOPI SAHI

Ray (2004)

 
The story of the life and career of the legendary rhythm and blues musician Ray Charles, from his humble beginnings in the South, where he went blind at age seven, to his meteoric rise to stardom during the 1950s and 1960s.
EN

Director:

Taylor Hackford

Writers:

Taylor Hackford (story), James L. White (story) | 1 more credit »
 
7.7/10
136,676

 

Directed byTaylor Hackford
Produced by
Screenplay byJames L. White
Story by
  • Taylor Hackford
  • James L. White
Starring
Music byCraig Armstrong
CinematographyPaweł Edelman
Edited byPaul Hirsch
Production
company
Distributed byUniversal Pictures
Release date
  • October 29, 2004
Running time
152 minutes
CountryUnited States
LanguageEnglish
Budget$40 million[1]
Box office$124.7 million[1]

 


Ray 2004 x264 720p Esub BluRay Dual Audio English Hindi GOPI SAHI


Format                         : Matroska
Format version                 : Version 4
File size                      : 1.38 GiB
Duration                       : 2 h 32 min
Overall bit rate               : 1 298 kb/s
Movie name                     : Ray 2004 GOPISAHI
Encoded date                   : UTC 2020-10-17 22:24:01


Video
ID                             : 1
Format                         : AVC
Format/Info                    : Advanced Video Codec
Format profile                 : [email protected]
Format settings                : CABAC / 9 Ref Frames
Format settings, CABAC         : Yes
Format settings, Reference fra : 9 frames
Codec ID                       : V_MPEG4/ISO/AVC
Duration                       : 2 h 32 min
Bit rate                       : 899 kb/s
Width                          : 1 280 pixels
Height                         : 694 pixels
Display aspect ratio           : 1.85:1
Frame rate mode                : Constant
Frame rate                     : 23.976 (24000/1001) FPS
Color space                    : YUV
Chroma subsampling             : 4:2:0
Bit depth                      : 8 bits
Scan type                      : Progressive
Bits/(Pixel*Frame)             : 0.042
Stream size                    : 980 MiB (69%)
Title                          : GOPI SAHI
Writing library                : x264 core 157 r2935 545de2f

Audio #1
ID                             : 2
Format                         : AAC LC
Format/Info                    : Advanced Audio Codec Low Complexity
Codec ID                       : A_AAC-2
Duration                       : 2 h 32 min
Bit rate                       : 192 kb/s
Channel(s)                     : 6 channels
Channel layout                 : C L R Ls Rs LFE
Sampling rate                  : 48.0 kHz
Frame rate                     : 46.875 FPS (1024 SPF)
Compression mode               : Lossy
Delay relative to video        : -9 ms
Stream size                    : 209 MiB (15%)
Title                          : GOPI SAHI
Language                       : Hindi
Default                        : Yes
Forced                         : No

Audio #2
ID                             : 3
Format                         : AAC LC
Format/Info                    : Advanced Audio Codec Low Complexity
Codec ID                       : A_AAC-2
Duration                       : 2 h 32 min
Bit rate                       : 192 kb/s
Channel(s)                     : 6 channels
Channel layout                 : C L R Ls Rs LFE
Sampling rate                  : 48.0 kHz
Frame rate                     : 46.875 FPS (1024 SPF)
Compression mode               : Lossy
Delay relative to video        : -12 ms
Stream size                    : 209 MiB (15%)
Title                          : GOPI SAHI
Language                       : English
Default                        : No
Forced                         : No

Text
ID                             : 4
Format                         : PGS
Muxing mode                    : zlib
Codec ID                       : S_HDMV/PGS
Codec ID/Info                  : Picture based subtitle format used on BDs/HD-DVDs
Duration                       : 2 h 29 min
Bit rate                       : 44.2 kb/s
Count of elements              : 4176
Stream size                    : 47.4 MiB (3%)
Title                          : GOPI SAHI
Language                       : English
Default                        : Yes
Forced                         : No

Menu
00:00:00.000                   : en:1. Main Titles/Seattle Bound
00:06:27.553                   : en:2. Talent Night
00:11:53.170                   : en:3. Golden Goose
00:19:30.419                   : en:4. To the Piano Born
00:23:09.096                   : en:5. The Chitlin' Circuit
00:28:05.016                   : en:6. Unnatural Death
00:34:42.246                   : en:7. No Tears
00:40:04.485                   : en:8. Messing Around
00:45:59.631                   : en:9. Hummingbird
00:55:26.781                   : en:10. The New Ray Charles
00:59:41.035                   : en:11. Devil Music
01:04:41.836                   : en:12. On the Road
01:07:44.226                   : en:13. Double Life
01:14:37.514                   : en:14. Cat Fight
01:22:09.257                   : en:15. Junkie
01:26:01.030                   : en:16. Improvising
01:32:17.573                   : en:17. Disharmony
01:37:25.756                   : en:18. Moving On
01:41:18.405                   : en:19. M.O.R.
01:44:58.792                   : en:20. Breaking the Rules
01:51:04.783                   : en:21. Battling Jim Crow
01:55:00.310                   : en:22. Busted
01:59:18.276                   : en:23. Going Country
02:05:51.168                   : en:24. State of the Art
02:09:09.074                   : en:25. Broken Hearts
02:13:41.680                   : en:26. Border Crossing
02:17:42.671                   : en:27. Rehab
02:21:38.072                   : en:28. Salvation/End Titles





MAGNET


TORRENT

MULTIUP

ANONFILES

BAYFILES

DWONLOAD AUTO START IN 20 SEC WAIT

DWONLOAD AUTO START IN 20 SEC WAIT

GDRIVE

CLOUDRU

MEDIAFIRE

ONLINE 720P

ONLINE 720P 2