Repo Men 2010 x264 720p Esub NetFLix Dual Audio Hindi English GOPI SAHI

Repo Men (2010)

 
 
Set in the near future when artificial organs can be bought on credit, it revolves around a man who struggles to make the payments on a heart he has purchased. He must therefore go on the run before said ticker is repossessed.
EN

Director:

Miguel Sapochnik

Writers:

Eric Garcia (screenplay), Garrett Lerner (screenplay) | 1 more credit »
 
6.3/10
100,330
 
Directed byMiguel Sapochnik
Produced byScott Stuber
Written byEric Garcia
Garrett Lerner
Based onThe Repossession Mambo
by Eric Garcia
StarringJude Law
Forest Whitaker
Liev Schreiber
Alice Braga
Carice van Houten
Music byMarco Beltrami
CinematographyEnrique Chediak
Edited byRichard Francis-Bruce
Production
company
Distributed byUniversal Pictures
Release date
  • March 19, 2010
Running time
111 minutes[1]
119 minutes (Unrated)
CountryUnited States
Canada
LanguageEnglish
Spanish
Budget$32 million[2][3]
Box office$18 million[3]

 

 

Repo Men 2010 x264 720p Esub NetFLix Dual Audio Hindi English GOPI SAHI


Format                         : Matroska
Format version                 : Version 4
File size                      : 870 MiB
Duration                       : 1 h 51 min
Overall bit rate               : 1 095 kb/s
Movie name                     : Repo Men 2010 GOPI SAHI
Encoded date                   : UTC 2020-10-25 04:34:57

Video
ID                             : 1
Format                         : AVC
Format/Info                    : Advanced Video Codec
Format profile                 : [email protected]
Format settings                : CABAC / 5 Ref Frames
Format settings, CABAC         : Yes
Format settings, Reference fra : 5 frames
Codec ID                       : V_MPEG4/ISO/AVC
Duration                       : 1 h 51 min
Bit rate                       : 899 kb/s
Width                          : 1 280 pixels
Height                         : 544 pixels
Display aspect ratio           : 2.35:1
Frame rate mode                : Constant
Frame rate                     : 23.976 (24000/1001) FPS
Color space                    : YUV
Chroma subsampling             : 4:2:0
Bit depth                      : 8 bits
Scan type                      : Progressive
Bits/(Pixel*Frame)             : 0.054
Stream size                    : 714 MiB (82%)
Title                          : GOPI SAHI
Writing library                : x264 core 157 r2935 545de2f

Audio #1
ID                             : 2
Format                         : AAC LC
Format/Info                    : Advanced Audio Codec Low Complexity
Codec ID                       : A_AAC-2
Duration                       : 1 h 51 min
Bit rate                       : 96.0 kb/s
Channel(s)                     : 2 channels
Channel layout                 : L R
Sampling rate                  : 48.0 kHz
Frame rate                     : 46.875 FPS (1024 SPF)
Compression mode               : Lossy
Delay relative to video        : -21 ms
Stream size                    : 76.6 MiB (9%)
Title                          : GOPI SAHI
Language                       : Hindi
Default                        : Yes
Forced                         : No

Audio #2
ID                             : 3
Format                         : AAC LC
Format/Info                    : Advanced Audio Codec Low Complexity
Codec ID                       : A_AAC-2
Duration                       : 1 h 51 min
Bit rate                       : 96.0 kb/s
Channel(s)                     : 2 channels
Channel layout                 : L R
Sampling rate                  : 48.0 kHz
Frame rate                     : 46.875 FPS (1024 SPF)
Compression mode               : Lossy
Delay relative to video        : -21 ms
Stream size                    : 76.7 MiB (9%)
Title                          : GOPI SAHI
Language                       : English
Default                        : No
Forced                         : No

Text
ID                             : 4
Format                         : UTF-8
Codec ID                       : S_TEXT/UTF8
Codec ID/Info                  : UTF-8 Plain Text
Duration                       : 1 h 46 min
Bit rate                       : 52 b/s
Count of elements              : 1326
Stream size                    : 40.9 KiB (0%)
Title                          : GOPI SAHI
Language                       : English
Default                        : Yes
Forced                         : No




 MAGNET

TORRENT

MULTIUP

DWONLOAD AUTO START IN 20 SEC WAIT

DWONLOAD AUTO START IN 20 SEC WAIT

GDRIVE


CLOUDRU

MEDIAFIRE

DOSYA


USAUPLOAD

ONLINE 720P