Revolutionary Road 2008 x264 720p Esub BluRay Dual Audio English Hindi GOPI SAHI

Revolutionary Road (2008)

 

A young couple living in a Connecticut suburb during the mid-1950s struggle to come to terms with their personal problems while trying to raise their two children.
EN

Director:

Sam Mendes

Writers:

Justin Haythe (screenplay), Richard Yates (novel)

7.3/10
193,125



Revolutionary Road 2008 x264 720p Esub BluRay Dual Audio English Hindi GOPI SAHI


Format                         : Matroska
Format version                 : Version 4
File size                      : 947 MiB
Duration                       : 1 h 59 min
Overall bit rate               : 1 105 kb/s
Movie name                     : Revolutionary Road 2008 GOPI SAHI
Encoded date                   : UTC 2020-10-08 01:13:56
Writing application            : mkvmerge v46.0.0 ('No Deeper Escape') 32-bit
Writing library                : libebml v1.3.10 + libmatroska v1.5.2

Video
ID                             : 1
Format                         : AVC
Format/Info                    : Advanced Video Codec
Format profile                 : [email protected]
Format settings                : CABAC / 5 Ref Frames
Format settings, CABAC         : Yes
Format settings, Reference fra : 5 frames
Codec ID                       : V_MPEG4/ISO/AVC
Duration                       : 1 h 59 min
Bit rate                       : 899 kb/s
Width                          : 1 280 pixels
Height                         : 544 pixels
Display aspect ratio           : 2.35:1
Frame rate mode                : Constant
Frame rate                     : 23.976 (24000/1001) FPS
Color space                    : YUV
Chroma subsampling             : 4:2:0
Bit depth                      : 8 bits
Scan type                      : Progressive
Bits/(Pixel*Frame)             : 0.054
Stream size                    : 765 MiB (81%)
Title                          : GOPI SAHI
Writing library                : x264 core 157 r2935 545de2f

Audio #1
ID                             : 2
Format                         : AAC LC
Format/Info                    : Advanced Audio Codec Low Complexity
Codec ID                       : A_AAC-2
Duration                       : 1 h 59 min
Bit rate                       : 96.0 kb/s
Channel(s)                     : 2 channels
Channel layout                 : L R
Sampling rate                  : 48.0 kHz
Frame rate                     : 46.875 FPS (1024 SPF)
Compression mode               : Lossy
Delay relative to video        : 2 s 357 ms
Stream size                    : 82.0 MiB (9%)
Title                          : GOPI SAHI
Language                       : Hindi
Default                        : Yes
Forced                         : No

Audio #2
ID                             : 3
Format                         : AAC LC
Format/Info                    : Advanced Audio Codec Low Complexity
Codec ID                       : A_AAC-2
Duration                       : 1 h 59 min
Bit rate                       : 96.0 kb/s
Channel(s)                     : 2 channels
Channel layout                 : L R
Sampling rate                  : 48.0 kHz
Frame rate                     : 46.875 FPS (1024 SPF)
Compression mode               : Lossy
Delay relative to video        : -21 ms
Stream size                    : 81.9 MiB (9%)
Title                          : GOPI SAHI
Language                       : English
Default                        : No
Forced                         : No

Text #1
ID                             : 4
Format                         : PGS
Muxing mode                    : zlib
Codec ID                       : S_HDMV/PGS
Codec ID/Info                  : Picture based subtitle format used on BDs/HD-DVDs
Duration                       : 1 h 57 min
Bit rate                       : 26.0 kb/s
Count of elements              : 2314
Stream size                    : 21.8 MiB (2%)
Title                          : GOPI SAHI
Language                       : Hindi
Default                        : No
Forced                         : No

Text #2
ID                             : 5
Format                         : PGS
Muxing mode                    : zlib
Codec ID                       : S_HDMV/PGS
Codec ID/Info                  : Picture based subtitle format used on BDs/HD-DVDs
Duration                       : 1 h 50 min
Bit rate                       : 35.1 kb/s
Count of elements              : 2312
Stream size                    : 27.7 MiB (3%)
Title                          : GOPI SAHI
Language                       : English
Default                        : No
Forced                         : No

Menu
00:00:00.000                   : :Intro
00:05:22.614                   : :Opening
00:09:41.956                   : :Alpha
00:14:53.810                   : :Beta
00:21:45.221                   : :Charlie
00:24:44.525                   : :Delta
00:31:13.246                   : :Echo
00:35:15.196                   : :Foxtrot
00:41:00.708                   : :Golf
00:44:24.203                   : :Hotel
00:51:47.479                   : :India
00:57:02.586                   : :Juliet
00:59:48.001                   : :Kilo
01:09:49.686                   : :Lima
01:18:46.013                   : :Motel
01:26:47.703                   : :November
01:34:04.139                   : :Oscar
01:39:54.906                   : :Papa
01:48:33.257                   : :Quebec
01:52:26.365                   : :Romeo