Tears of the Sun 2003 x264 720p Esub BluRay Dual Audio English Hindi GOPI SAHI

Tears of the Sun (2003)

 
 
A Special-Ops commander leads his team into the Nigerian jungle in order to rescue a doctor who will only join them if they agree to save 70 refugees too.
EN

Director:

Antoine Fuqua
 
6.6/10
111,561
Directed byAntoine Fuqua
Produced byIan Bryce
Mike Lobell
Arnold Rifkin
Written byAlex Lasker
Patrick Cirillo
StarringBruce Willis
Monica Bellucci
Cole Hauser
Tom Skerritt
Music byHans Zimmer
CinematographyMauro Fiore
Edited byConrad Buff
Production
company
Distributed bySony Pictures Releasing
Release date
  • March 7, 2003
Running time
121 minutes
CountryUnited States
LanguageEnglish
Budget$100.5 million[1]
Box office$86.5 million[2][3


Tears of the Sun 2003 x264 720p Esub BluRay Dual Audio English Hindi GOPI SAHI


Format                         : Matroska
Format version                 : Version 4
File size                      : 965 MiB
Duration                       : 2 h 0 min
Overall bit rate               : 1 116 kb/s
Movie name                     : Tears of the Sun 2003 GOPI SAHI

Video
ID                             : 1
Format                         : AVC
Format/Info                    : Advanced Video Codec
Format profile                 : [email protected]
Format settings                : CABAC / 5 Ref Frames
Format settings, CABAC         : Yes
Format settings, Reference fra : 5 frames
Codec ID                       : V_MPEG4/ISO/AVC
Duration                       : 2 h 0 min
Bit rate                       : 899 kb/s
Width                          : 1 280 pixels
Height                         : 534 pixels
Display aspect ratio           : 2.40:1
Frame rate mode                : Constant
Frame rate                     : 23.976 (24000/1001) FPS
Color space                    : YUV
Chroma subsampling             : 4:2:0
Bit depth                      : 8 bits
Scan type                      : Progressive
Bits/(Pixel*Frame)             : 0.055
Stream size                    : 777 MiB (80%)
Title                          : GOPI SAHI
Writing library                : x264 core 157 r2935 545de2f

Audio #1
ID                             : 2
Format                         : AAC LC
Format/Info                    : Advanced Audio Codec Low Complexity
Codec ID                       : A_AAC-2
Duration                       : 2 h 0 min
Bit rate                       : 96.0 kb/s
Channel(s)                     : 2 channels
Channel layout                 : L R
Sampling rate                  : 48.0 kHz
Frame rate                     : 46.875 FPS (1024 SPF)
Compression mode               : Lossy
Delay relative to video        : -21 ms
Stream size                    : 83.4 MiB (9%)
Title                          : GOPI SAHI
Language                       : Hindi
Default                        : Yes
Forced                         : No

Audio #2
ID                             : 3
Format                         : AAC LC
Format/Info                    : Advanced Audio Codec Low Complexity
Codec ID                       : A_AAC-2
Duration                       : 2 h 0 min
Bit rate                       : 96.0 kb/s
Channel(s)                     : 2 channels
Channel layout                 : L R
Sampling rate                  : 48.0 kHz
Frame rate                     : 46.875 FPS (1024 SPF)
Compression mode               : Lossy
Delay relative to video        : -21 ms
Stream size                    : 83.4 MiB (9%)
Title                          : GOPI SAHI
Language                       : English
Default                        : No
Forced                         : No

Text #1
ID                             : 4
Format                         : PGS
Muxing mode                    : zlib
Codec ID                       : S_HDMV/PGS
Codec ID/Info                  : Picture based subtitle format used on BDs/HD-DVDs
Duration                       : 1 h 59 min
Bit rate                       : 27.5 kb/s
Count of elements              : 1986
Stream size                    : 23.5 MiB (2%)
Title                          : GOPI SAHI
Language                       : Hindi
Default                        : Yes
Forced                         : Yes

Text #2
ID                             : 5
Format                         : PGS
Muxing mode                    : zlib
Codec ID                       : S_HDMV/PGS
Codec ID/Info                  : Picture based subtitle format used on BDs/HD-DVDs
Duration                       : 1 h 51 min
Bit rate                       : 36.2 kb/s
Count of elements              : 1992
Stream size                    : 28.8 MiB (3%)
Title                          : GOPI SAHI
Language                       : English
Default                        : No
Forced                         : No

Menu #1
00:00:00.000                   : :Chapter 1
00:07:31.826                   : :Chapter 2
00:15:26.467                   : :Chapter 3
00:23:23.569                   : :Chapter 4
00:30:12.811                   : :Chapter 5
00:36:49.666                   : :Chapter 6
00:45:13.544                   : :Chapter 7
00:53:35.879                   : :Chapter 8
01:03:13.081                   : :Chapter 9
01:09:24.494                   : :Chapter 10
01:16:02.892                   : :Chapter 11
01:24:27.604                   : :Chapter 12
01:32:14.821                   : :Chapter 13
01:39:17.827                   : :Chapter 14
01:44:19.587                   : :Chapter 15
01:48:34.925                   : :Chapter 16

Menu #2
00:00:00.000                   : en:Chapter 01
00:07:31.826                   : en:Chapter 02
00:15:26.467                   : en:Chapter 03
00:23:23.569                   : en:Chapter 04
00:30:12.811                   : en:Chapter 05
00:36:49.666                   : en:Chapter 06
00:45:13.544                   : en:Chapter 07
00:53:35.879                   : en:Chapter 08
01:03:13.081                   : en:Chapter 09
01:09:24.494                   : en:Chapter 10
01:16:02.892                   : en:Chapter 11
01:24:27.604                   : en:Chapter 12
01:32:14.821                   : en:Chapter 13
01:39:17.827                   : en:Chapter 14
01:44:19.503                   : en:Chapter 15
01:48:34.925                   : en:Chapter 16


Post a Comment

0 Comments