The Adventures Of Ichabod And Mr. Toad 1949 x264 720p BluRay Dual Audio English Hindi GOPI SAHI

The Adventures of Ichabod and Mr. Toad (1949)

Approved | | Animation, Comedy, Family | 6 January 1950 (USA) 
 
An animated adaptation of "The Wind in the Willows" followed by an adaptation of "The Legend of Sleepy Hollow".
EN

Writers:

Washington Irving (story "The Legend of Sleepy Hollow"), Kenneth Grahame (story "The Wind in the Willows") | 6 more credits »
 
7.0/10
12,787
Directed by
Produced byWalt Disney
Story by
Based onThe Wind in the Willows
by Kenneth Grahame
The Legend of Sleepy Hollow
by Washington Irving
Starring
Narrated by
Music byOliver Wallace
Edited byJohn O. Young
Production
company
Distributed byRKO Radio Pictures
Release date
‹See TfM›
  • October 5, 1949
Running time
68 minutes
CountryUnited States
LanguageEnglish
Box office$1,625,000 (worldwide rentals)[1]


The Adventures Of Ichabod And Mr. Toad 1949 x264 720p BluRay Dual Audio English Hindi GOPI SAHI

Format                         : Matroska
Format version                 : Version 4
File size                      : 533 MiB
Duration                       : 1 h 8 min
Overall bit rate               : 1 094 kb/s
Movie name                     : The Adventures Of Ichabod And Mr. Toad 1949 GOPI SAHI
Encoded date                   : UTC 2020-10-30 12:11:36

Video
ID                             : 1
Format                         : AVC
Format/Info                    : Advanced Video Codec
Format profile                 : [email protected]
Format settings                : CABAC / 5 Ref Frames
Format settings, CABAC         : Yes
Format settings, Reference fra : 5 frames
Codec ID                       : V_MPEG4/ISO/AVC
Duration                       : 1 h 8 min
Bit rate                       : 899 kb/s
Width                          : 1 280 pixels
Height                         : 952 pixels
Display aspect ratio           : 4:3
Frame rate mode                : Constant
Frame rate                     : 23.976 (24000/1001) FPS
Color space                    : YUV
Chroma subsampling             : 4:2:0
Bit depth                      : 8 bits
Scan type                      : Progressive
Bits/(Pixel*Frame)             : 0.031
Stream size                    : 438 MiB (82%)
Title                          : GOPI SAHI
Writing library                : x264 core 157 r2935 545de2f

Audio #1
ID                             : 2
Format                         : AAC LC
Format/Info                    : Advanced Audio Codec Low Complexity
Codec ID                       : A_AAC-2
Duration                       : 1 h 8 min
Bit rate                       : 96.0 kb/s
Channel(s)                     : 2 channels
Channel layout                 : L R
Sampling rate                  : 48.0 kHz
Frame rate                     : 46.875 FPS (1024 SPF)
Compression mode               : Lossy
Delay relative to video        : -42 ms
Stream size                    : 46.4 MiB (9%)
Title                          : GOPI SAHI
Language                       : Hindi
Default                        : Yes
Forced                         : No

Audio #2
ID                             : 3
Format                         : AAC LC
Format/Info                    : Advanced Audio Codec Low Complexity
Codec ID                       : A_AAC-2
Duration                       : 1 h 8 min
Bit rate                       : 96.0 kb/s
Channel(s)                     : 2 channels
Channel layout                 : L R
Sampling rate                  : 48.0 kHz
Frame rate                     : 46.875 FPS (1024 SPF)
Compression mode               : Lossy
Delay relative to video        : -42 ms
Stream size                    : 47.0 MiB (9%)
Title                          : GOPI SAHI
Language                       : English
Default                        : No
Forced                         : No

 


 

MAGNET


TORRENT


DWONLOAD AUTO START IN 20 SEC WAIT

DWONLOAD AUTO START IN 20 SEC WAIT

GDRIVE

CLOUDRU


MEDIAFIRE


ONLINE 720P