The Departed 2006 x264 720p Esub BluRay Dual Audio English Hindi GOPI SAHI

The Departed (2006)


An undercover cop and a mole in the police attempt to identify each other while infiltrating an Irish gang in South Boston.
EN

Director:

Martin Scorsese

Writers:

William Monahan (screenplay), Alan Mak | 1 more credit »
8.5/10


Directed byMartin Scorsese
Produced by
Written byWilliam Monahan
Based onInfernal Affairs
by Alan Mak
Felix Chong
Starring
Music byHoward Shore
CinematographyMichael Ballhaus
Edited byThelma Schoonmaker
Production
companies
Distributed byWarner Bros. Pictures
Release date
Running time
151 minutes[1]
CountryUnited States
LanguageEnglish
Chinese
Budget$90 million[1]
Box office$291.5 million[1]

The Departed 2006 x264 720p Esub BluRay Dual Audio English Hindi GOPI SAHI

Format                         : Matroska
Format version                 : Version 4
File size                      : 1.20 GiB
Duration                       : 2 h 31 min
Overall bit rate               : 1 136 kb/s
Movie name                     : The Departed 2006 GOPI SAHI
Encoded date                   : UTC 2020-09-30 19:41:46

Video
ID                             : 1
Format                         : AVC
Format/Info                    : Advanced Video Codec
Format profile                 : [email protected]
Format settings                : CABAC / 5 Ref Frames
Format settings, CABAC         : Yes
Format settings, Reference fra : 5 frames
Codec ID                       : V_MPEG4/ISO/AVC
Duration                       : 2 h 31 min
Bit rate                       : 899 kb/s
Width                          : 1 280 pixels
Height                         : 530 pixels
Display aspect ratio           : 2.40:1
Frame rate mode                : Constant
Frame rate                     : 23.976 (24000/1001) FPS
Color space                    : YUV
Chroma subsampling             : 4:2:0
Bit depth                      : 8 bits
Scan type                      : Progressive
Bits/(Pixel*Frame)             : 0.055
Stream size                    : 973 MiB (79%)
Title                          : GOPI SAHI
Writing library                : x264 core 157 r2935 545de2f

Audio #1
ID                             : 2
Format                         : AAC LC
Format/Info                    : Advanced Audio Codec Low Complexity
Codec ID                       : A_AAC-2
Duration                       : 2 h 31 min
Bit rate                       : 96.0 kb/s
Channel(s)                     : 2 channels
Channel layout                 : L R
Sampling rate                  : 48.0 kHz
Frame rate                     : 46.875 FPS (1024 SPF)
Compression mode               : Lossy
Delay relative to video        : -15 ms
Stream size                    : 105 MiB (9%)
Title                          : GOPI SAHI
Language                       : Hindi
Default                        : Yes
Forced                         : No

Audio #2
ID                             : 3
Format                         : AAC LC
Format/Info                    : Advanced Audio Codec Low Complexity
Codec ID                       : A_AAC-2
Duration                       : 2 h 31 min
Bit rate                       : 96.0 kb/s
Channel(s)                     : 2 channels
Channel layout                 : L R
Sampling rate                  : 48.0 kHz
Frame rate                     : 46.875 FPS (1024 SPF)
Compression mode               : Lossy
Delay relative to video        : -21 ms
Stream size                    : 104 MiB (8%)
Title                          : GOPI SAHI
Language                       : English
Default                        : No
Forced                         : No

Text #1
ID                             : 4
Format                         : PGS
Muxing mode                    : zlib
Codec ID                       : S_HDMV/PGS
Codec ID/Info                  : Picture based subtitle format used on BDs/HD-DVDs
Duration                       : 2 h 30 min
Bit rate                       : 64.2 kb/s
Count of elements              : 3812
Stream size                    : 69.2 MiB (6%)
Title                          : GOPI SAHI
Language                       : English
Default                        : Yes
Forced                         : Yes

Text #2
ID                             : 5
Format                         : PGS
Muxing mode                    : zlib
Codec ID                       : S_HDMV/PGS
Codec ID/Info                  : Picture based subtitle format used on BDs/HD-DVDs
Duration                       : 2 h 30 min
Bit rate                       : 68.5 kb/s
Count of elements              : 4112
Stream size                    : 73.9 MiB (6%)
Title                          : GOPI SAHI
Language                       : English
Default                        : No
Forced                         : No

Menu
00:00:00.000                   : :Start
00:05:04.179                   : :School's Out
00:08:52.574                   : :You're No Cop
00:14:55.019                   : :Serve the Commonwealth
00:19:11.484                   : :He's Jackie's Nephew
00:24:02.524                   : :Dignam Briefs the Girls
00:26:01.101                   : :Tipped Off, Ticked Off
00:30:07.014                   : :Impervious to Analysis
00:32:17.352                   : :Necessary Torture
00:37:12.439                   : :Two Guys From Providence
00:42:45.730                   : :May I Remind You
00:47:27.261                   : :Call Your Mother
00:51:22.788                   : :How Billy Feels
00:54:51.288                   : :Hang Tight for Me
00:59:43.080                   : :Call the Game
01:03:08.785                   : :No Tickee, No Laundry
01:07:45.395                   : :Relationship Ups and Downs
01:13:03.170                   : :If You Coulda
01:14:57.159                   : :Protected and Benumbed
01:16:38.552                   : :Real Vulnerability
01:22:44.418                   : :Take Care of Business
01:27:22.738                   : :Each Other's Trail
01:30:18.288                   : :Heavy Lies the Crown
01:36:32.287                   : :The One That Gets Out
01:39:30.631                   : :Tail on Queenan
01:45:53.597                   : :Taking the Fall
01:47:40.621                   : :Wrong Number
01:51:52.039                   : :Dead Guy's Phone
01:56:53.298                   : :Nation of Rats
02:00:52.912                   : :Sheffield Shootout
02:03:05.670                   : :Getting Frank
02:06:02.555                   : :Deleted
02:10:52.011                   : :Play Me Now
02:15:18.068                   : :Rats on a Rooftop
02:18:55.077                   : :The Departed
02:23:18.048                   : :Okay
02:24:46.928                   : :End Credits




Post a Comment

0 Comments