The First Purge 2018 x264 720p Esub BluRay Dual Audio English Hindi GOPI SAHI

The First Purge (2018)



America's third political party, the New Founding Fathers of America, comes to power and conducts an experiment: no laws for 12 hours on Staten Island. No one has to stay on the island, but $5,000 is given to anyone who does.

Director:

Gerard McMurray

Writer:

James DeMonaco

5.2/10
52,936
Directed byGerard McMurray
Produced by
Written byJames DeMonaco
Starring
Music byKevin Lax
CinematographyAnastas Michos
Edited byJim Page
Production
companies
Distributed byUniversal Pictures
Release date
  • July 4, 2018 (United States)
Running time
97 minutes[1]
CountryUnited States
LanguageEnglish
Budget$13 million[2]
Box office$137.1 million[2]


The First Purge 2018 GOPI SAHI

Format                         : Matroska
Format version                 : Version 4
File size                      : 781 MiB
Duration                       : 1 h 37 min
Overall bit rate               : 1 119 kb/s
Movie name                     : 4 The First Purge 2018 GOPI SAHI
Encoded date                   : UTC 2020-10-04 15:18:31
Video
ID                             : 1
Format                         : AVC
Format/Info                    : Advanced Video Codec
Format profile                 : [email protected]
Format settings                : CABAC / 5 Ref Frames
Format settings, CABAC         : Yes
Format settings, Reference fra : 5 frames
Codec ID                       : V_MPEG4/ISO/AVC
Duration                       : 1 h 37 min
Bit rate                       : 899 kb/s
Width                          : 1 280 pixels
Height                         : 536 pixels
Display aspect ratio           : 2.40:1
Frame rate mode                : Constant
Frame rate                     : 23.976 (24000/1001) FPS
Color space                    : YUV
Chroma subsampling             : 4:2:0
Bit depth                      : 8 bits
Scan type                      : Progressive
Bits/(Pixel*Frame)             : 0.055
Stream size                    : 626 MiB (80%)
Title                          : GOPI SAHI
Writing library                : x264 core 157 r2935 545de2f

Audio #1
ID                             : 2
Format                         : AAC LC
Format/Info                    : Advanced Audio Codec Low Complexity
Codec ID                       : A_AAC-2
Duration                       : 1 h 37 min
Bit rate                       : 96.0 kb/s
Channel(s)                     : 2 channels
Channel layout                 : L R
Sampling rate                  : 48.0 kHz
Frame rate                     : 46.875 FPS (1024 SPF)
Compression mode               : Lossy
Delay relative to video        : 137 ms
Stream size                    : 67.2 MiB (9%)
Title                          : GOPI SAHI
Language                       : Hindi
Default                        : Yes
Forced                         : No

Audio #2
ID                             : 3
Format                         : AAC LC
Format/Info                    : Advanced Audio Codec Low Complexity
Codec ID                       : A_AAC-2
Duration                       : 1 h 37 min
Bit rate                       : 96.0 kb/s
Channel(s)                     : 2 channels
Channel layout                 : L R
Sampling rate                  : 48.0 kHz
Frame rate                     : 46.875 FPS (1024 SPF)
Compression mode               : Lossy
Delay relative to video        : -21 ms
Stream size                    : 67.2 MiB (9%)
Title                          : GOPI SAHI
Language                       : English
Default                        : No
Forced                         : No

Text #1
ID                             : 4
Format                         : PGS
Muxing mode                    : zlib
Codec ID                       : S_HDMV/PGS
Codec ID/Info                  : Picture based subtitle format used on BDs/HD-DVDs
Duration                       : 1 h 30 min
Bit rate                       : 25.4 kb/s
Count of elements              : 2518
Stream size                    : 16.4 MiB (2%)
Title                          : GOPI SAHI
Language                       : Hindi
Default                        : Yes
Forced                         : Yes

Text #2
ID                             : 5
Format                         : PGS
Muxing mode                    : zlib
Codec ID                       : S_HDMV/PGS
Codec ID/Info                  : Picture based subtitle format used on BDs/HD-DVDs
Duration                       : 1 h 33 min
Bit rate                       : 47.3 kb/s
Count of elements              : 2994
Stream size                    : 31.5 MiB (4%)
Title                          : GOPI SAHI
Language                       : English
Default                        : No
Forced                         : No

Menu
00:00:00.000                   : :Chapter 1
00:06:25.635                   : :Chapter 2
00:11:59.802                   : :Chapter 3
00:16:18.769                   : :Chapter 4
00:21:18.110                   : :Chapter 5
00:25:56.555                   : :Chapter 6
00:30:54.144                   : :Chapter 7
00:35:31.212                   : :Chapter 8
00:38:41.110                   : :Chapter 9
00:43:02.455                   : :Chapter 10
00:48:34.537                   : :Chapter 11
00:53:35.087                   : :Chapter 12
00:55:59.565                   : :Chapter 13
00:59:13.050                   : :Chapter 14
01:05:25.797                   : :Chapter 15
01:09:31.793                   : :Chapter 16
01:13:23.733                   : :Chapter 17
01:19:47.533                   : :Chapter 18
01:24:50.127                   : :Chapter 19
01:29:54.931                   : :Chapter 20




Post a Comment

0 Comments