The General's Daughter 1999 x264 720p Esub NetFLix Dual Audio Hindi English GOPI SAHI

The General's Daughter (1999)


 
When the daughter of a well-known and well-respected base commander is murdered, an undercover detective is summoned to look into the matter and finds a slew of cover-ups at West Point.
EN

Director:

Simon West

Writers:

Nelson DeMille (novel), Christopher Bertolini (screenplay) | 1 more credit »

6.4/10




Directed bySimon West
Produced byMace Neufeld
Screenplay byChristopher Bertolini
William Goldman
Based onThe General's Daughter
by Nelson DeMille
Starring
Music byCarter Burwell
CinematographyPeter Menzies Jr.
Edited byGlen Scantlebury
Distributed byParamount Pictures
Release date
  • June 18, 1999
Running time
116 minutes
CountryUnited States
LanguageEnglish
Budget$95 million[1]
Box office$149.7 million[1]



The General's Daughter 1999 x264 720p Esub NetFLix Dual Audio Hindi English GOPI SAHI

Format                         : Matroska
Format version                 : Version 4
File size                      : 914 MiB
Duration                       : 1 h 56 min
Overall bit rate               : 1 093 kb/s
Movie name                     : The General's Daughter 1999 GOPI SAHI
Encoded date                   : UTC 2020-10-01 08:39:32

Video
ID                             : 1
Format                         : AVC
Format/Info                    : Advanced Video Codec
Format profile                 : [email protected]
Format settings                : CABAC / 5 Ref Frames
Format settings, CABAC         : Yes
Format settings, Reference fra : 5 frames
Codec ID                       : V_MPEG4/ISO/AVC
Duration                       : 1 h 56 min
Bit rate                       : 899 kb/s
Width                          : 1 280 pixels
Height                         : 534 pixels
Display aspect ratio           : 2.40:1
Frame rate mode                : Constant
Frame rate                     : 23.976 (24000/1001) FPS
Color space                    : YUV
Chroma subsampling             : 4:2:0
Bit depth                      : 8 bits
Scan type                      : Progressive
Bits/(Pixel*Frame)             : 0.055
Stream size                    : 751 MiB (82%)
Title                          : GOPI SAHI
Writing library                : x264 core 157 r2935 545de2f

Audio #1
ID                             : 2
Format                         : AAC LC
Format/Info                    : Advanced Audio Codec Low Complexity
Codec ID                       : A_AAC-2
Duration                       : 1 h 56 min
Bit rate                       : 96.0 kb/s
Channel(s)                     : 2 channels
Channel layout                 : L R
Sampling rate                  : 48.0 kHz
Frame rate                     : 46.875 FPS (1024 SPF)
Compression mode               : Lossy
Delay relative to video        : -21 ms
Stream size                    : 80.3 MiB (9%)
Title                          : GOPI SAHI
Language                       : Hindi
Default                        : Yes
Forced                         : No

Audio #2
ID                             : 3
Format                         : AAC LC
Format/Info                    : Advanced Audio Codec Low Complexity
Codec ID                       : A_AAC-2
Duration                       : 1 h 56 min
Bit rate                       : 96.0 kb/s
Channel(s)                     : 2 channels
Channel layout                 : L R
Sampling rate                  : 48.0 kHz
Frame rate                     : 46.875 FPS (1024 SPF)
Compression mode               : Lossy
Delay relative to video        : -21 ms
Stream size                    : 80.2 MiB (9%)
Title                          : GOPI SAHI
Language                       : English
Default                        : No
Forced                         : No

Text #1
ID                             : 4
Format                         : UTF-8
Codec ID                       : S_TEXT/UTF8
Codec ID/Info                  : UTF-8 Plain Text
Duration                       : 1 h 49 min
Bit rate                       : 67 b/s
Count of elements              : 1614
Stream size                    : 54.0 KiB (0%)
Title                          : GOPI SAHI
Language                       : English
Default                        : No
Forced                         : No

Text #2
ID                             : 5
Format                         : PGS
Muxing mode                    : zlib
Codec ID                       : S_HDMV/PGS
Codec ID/Info                  : Picture based subtitle format used on BDs/HD-DVDs
Duration                       : 1 h 50 min
Bit rate                       : 444 b/s
Count of elements              : 42
Stream size                    : 359 KiB (0%)
Title                          : GOPI SAHI
Language                       : Hindi
Default                        : Yes
Forced                         : No




Post a Comment

0 Comments