The Godfather 1972 x264 720p Esub BluRay Dual Audio English Hindi GOPI SAHI

The Godfather (1972)

 
R | | Crime, Drama | 24 March 1972 (USA)
 
The aging patriarch of an organized crime dynasty transfers control of his clandestine empire to his reluctant son.
EN

Writers:

Mario Puzo (screenplay by), Francis Ford Coppola (screenplay by) | 1 more credit »
 
9.2/10
1,580,986
 
Directed byFrancis Ford Coppola
Produced byAlbert S. Ruddy
Screenplay by
Based onThe Godfather
by Mario Puzo
Starring
Music byNino Rota
CinematographyGordon Willis
Edited by
Production
companies
Distributed byParamount Pictures
Release date
Running time
177 minutes[1]
CountryUnited States
LanguageEnglish
Budget$6–7.2 million[N 1]
Box office$246–287 million[N 2]



The Godfather 1972 GOPI SAHI

Format                         : Matroska
Format version                 : Version 4
File size                      : 1.37 GiB
Duration                       : 2 h 57 min
Overall bit rate               : 1 111 kb/s
Movie name                     : The Godfather 1972 GOPI SAHI
Encoded date                   : UTC 2020-10-06 01:15:34

Video
ID                             : 1
Format                         : AVC
Format/Info                    : Advanced Video Codec
Format profile                 : [email protected]
Format settings                : CABAC / 5 Ref Frames
Format settings, CABAC         : Yes
Format settings, Reference fra : 5 frames
Codec ID                       : V_MPEG4/ISO/AVC
Duration                       : 2 h 57 min
Bit rate                       : 899 kb/s
Width                          : 1 280 pixels
Height                         : 720 pixels
Display aspect ratio           : 16:9
Frame rate mode                : Constant
Frame rate                     : 23.976 (24000/1001) FPS
Color space                    : YUV
Chroma subsampling             : 4:2:0
Bit depth                      : 8 bits
Scan type                      : Progressive
Bits/(Pixel*Frame)             : 0.041
Stream size                    : 1.11 GiB (81%)
Title                          : GOPI SAHI
Writing library                : x264 core 157 r2935 545de2f

Audio #1
ID                             : 2
Format                         : AAC LC
Format/Info                    : Advanced Audio Codec Low Complexity
Codec ID                       : A_AAC-2
Duration                       : 2 h 57 min
Bit rate                       : 96.0 kb/s
Channel(s)                     : 2 channels
Channel layout                 : L R
Sampling rate                  : 48.0 kHz
Frame rate                     : 46.875 FPS (1024 SPF)
Compression mode               : Lossy
Delay relative to video        : 3 s 439 ms
Stream size                    : 122 MiB (9%)
Title                          : GOPI SAHI
Language                       : Hindi
Default                        : Yes
Forced                         : No

Audio #2
ID                             : 3
Format                         : AAC LC
Format/Info                    : Advanced Audio Codec Low Complexity
Codec ID                       : A_AAC-2
Duration                       : 2 h 57 min
Bit rate                       : 96.0 kb/s
Channel(s)                     : 2 channels
Channel layout                 : L R
Sampling rate                  : 48.0 kHz
Frame rate                     : 46.875 FPS (1024 SPF)
Compression mode               : Lossy
Delay relative to video        : -21 ms
Stream size                    : 122 MiB (9%)
Title                          : GOPI SAHI
Language                       : English
Default                        : No
Forced                         : No

Text #1
ID                             : 4
Format                         : PGS
Muxing mode                    : zlib
Codec ID                       : S_HDMV/PGS
Codec ID/Info                  : Picture based subtitle format used on BDs/HD-DVDs
Duration                       : 2 h 55 min
Bit rate                       : 21.7 kb/s
Count of elements              : 2650
Stream size                    : 27.3 MiB (2%)
Title                          : GOPI SAHI
Language                       : Hindi
Default                        : Yes
Forced                         : Yes

Text #2
ID                             : 5
Format                         : PGS
Muxing mode                    : zlib
Codec ID                       : S_HDMV/PGS
Codec ID/Info                  : Picture based subtitle format used on BDs/HD-DVDs
Duration                       : 2 h 51 min
Bit rate                       : 35.2 kb/s
Count of elements              : 2624
Stream size                    : 43.2 MiB (3%)
Title                          : GOPI SAHI
Language                       : English
Default                        : No
Forced                         : No

Menu
00:00:00.000                   : :Chapter 1
00:07:30.784                   : :Chapter 2
00:18:03.624                   : :Chapter 3
00:27:03.789                   : :Chapter 4
00:34:20.267                   : :Chapter 5
00:40:17.916                   : :Chapter 6
00:48:52.388                   : :Chapter 7
00:58:18.412                   : :Chapter 8
01:08:44.579                   : :Chapter 9
01:15:49.003                   : :Chapter 10
01:30:00.687                   : :Chapter 11
01:37:06.863                   : :Chapter 12
01:46:18.163                   : :Chapter 13
01:49:30.189                   : :Chapter 14
01:53:57.789                   : :Chapter 15
02:03:21.311                   : :Chapter 16
02:06:37.340                   : :Chapter 17
02:13:28.125                   : :Chapter 18
02:19:47.504                   : :Chapter 19
02:25:56.706                   : :Chapter 20
02:36:56.032                   : :Chapter 21
02:44:43.540                   : :Chapter 22
02:53:05.750                   : :Chapter 23






Post a Comment

0 Comments