The Godfather- Part Iii 1990 x264 720p Esub BluRay Dual Audio English Hindi GOPI SAHI

The Godfather: Part III (1990)



In the midst of trying to legitimize his business dealings in New York City and Italy in 1979, aging Mafia Don Michael Corleone seeks to avow for his sins, while taking his nephew Vincent Mancini under his wing.
EN

7.6/10
351,942

Directed byFrancis Ford Coppola
Produced byFrancis Ford Coppola
Written by
Starring
Music byCarmine Coppola
CinematographyGordon Willis
Edited by
Production
companies
Distributed byParamount Pictures
Release date
  • December 20, 1990 (Beverly Hills)
  • December 25, 1990 (United States)
Running time
162 minutes[1]
CountryUnited States
LanguageEnglish
Budget$54 million[2]
Box office$136.8 million[2]


The Godfather- Part III 1990 GOPI SAHI

Format                         : Matroska
Format version                 : Version 4
File size                      : 1.32 GiB
Duration                       : 2 h 50 min
Overall bit rate               : 1 110 kb/s
Movie name                     : The Godfather: Part III 1990 GOPI SAHI
Encoded date                   : UTC 2020-10-06 03:22:04

Video
ID                             : 1
Format                         : AVC
Format/Info                    : Advanced Video Codec
Format profile                 : [email protected]
Format settings                : CABAC / 5 Ref Frames
Format settings, CABAC         : Yes
Format settings, Reference fra : 5 frames
Codec ID                       : V_MPEG4/ISO/AVC
Duration                       : 2 h 50 min
Bit rate                       : 899 kb/s
Width                          : 1 280 pixels
Height                         : 724 pixels
Display aspect ratio           : 16:9
Frame rate mode                : Constant
Frame rate                     : 23.976 (24000/1001) FPS
Color space                    : YUV
Chroma subsampling             : 4:2:0
Bit depth                      : 8 bits
Scan type                      : Progressive
Bits/(Pixel*Frame)             : 0.040
Stream size                    : 1.07 GiB (81%)
Title                          : GOPI SAHI
Writing library                : x264 core 157 r2935 545de2f

Audio #1
ID                             : 2
Format                         : AAC LC
Format/Info                    : Advanced Audio Codec Low Complexity
Codec ID                       : A_AAC-2
Duration                       : 2 h 50 min
Bit rate                       : 96.0 kb/s
Channel(s)                     : 2 channels
Channel layout                 : L R
Sampling rate                  : 48.0 kHz
Frame rate                     : 46.875 FPS (1024 SPF)
Compression mode               : Lossy
Delay relative to video        : -21 ms
Stream size                    : 117 MiB (9%)
Title                          : GOPI SAHI
Language                       : Hindi
Default                        : Yes
Forced                         : No

Audio #2
ID                             : 3
Format                         : AAC LC
Format/Info                    : Advanced Audio Codec Low Complexity
Codec ID                       : A_AAC-2
Duration                       : 2 h 50 min
Bit rate                       : 96.0 kb/s
Channel(s)                     : 2 channels
Channel layout                 : L R
Sampling rate                  : 48.0 kHz
Frame rate                     : 46.875 FPS (1024 SPF)
Compression mode               : Lossy
Delay relative to video        : -21 ms
Stream size                    : 117 MiB (9%)
Title                          : GOPI SAHI
Language                       : English
Default                        : No
Forced                         : No

Text #1
ID                             : 4
Format                         : PGS
Muxing mode                    : zlib
Codec ID                       : S_HDMV/PGS
Codec ID/Info                  : Picture based subtitle format used on BDs/HD-DVDs
Duration                       : 2 h 48 min
Bit rate                       : 19.4 kb/s
Count of elements              : 2604
Stream size                    : 23.4 MiB (2%)
Title                          : GOPI SAHI
Language                       : Hindi
Default                        : Yes
Forced                         : Yes

Text #2
ID                             : 5
Format                         : PGS
Muxing mode                    : zlib
Codec ID                       : S_HDMV/PGS
Codec ID/Info                  : Picture based subtitle format used on BDs/HD-DVDs
Duration                       : 2 h 37 min
Bit rate                       : 34.9 kb/s
Count of elements              : 2570
Stream size                    : 39.3 MiB (3%)
Title                          : GOPI SAHI
Language                       : English
Default                        : No
Forced                         : No

Menu
00:00:00.000                   : :Chapter 1
00:06:01.152                   : :Chapter 2
00:14:36.334                   : :Chapter 3
00:23:00.129                   : :Chapter 4
00:32:25.318                   : :Chapter 5
00:39:26.531                   : :Chapter 6
00:43:00.286                   : :Chapter 7
00:49:31.177                   : :Chapter 8
00:53:31.625                   : :Chapter 9
01:04:12.265                   : :Chapter 10
01:12:41.357                   : :Chapter 11
01:16:32.713                   : :Chapter 12
01:19:46.198                   : :Chapter 13
01:25:00.721                   : :Chapter 14
01:33:08.416                   : :Chapter 15
01:38:18.601                   : :Chapter 16
01:49:40.365                   : :Chapter 17
02:03:38.786                   : :Chapter 18
02:06:16.360                   : :Chapter 19
02:12:26.522                   : :Chapter 20
02:17:46.300                   : :Chapter 21
02:26:51.303                   : :Chapter 22
02:35:44.293                   : :Chapter 23
02:40:44.969                   : :Chapter 24
02:42:45.339                   : :Chapter 25