The Great Gatsby 2013 x264 720p Esub BluRay Dual Audio English Hindi GOPI SAHI

The Great Gatsby (2013)

 
PG-13 | | Drama, Romance | 10 May 2013 (USA) 
 
A writer and wall street trader, Nick, finds himself drawn to the past and lifestyle of his millionaire neighbor, Jay Gatsby.
EN

Director:

Baz Luhrmann

Writers:

Baz Luhrmann (screenplay), Craig Pearce (screenplay) | 1 more credit »
 
7.2/10
468,814
Directed byBaz Luhrmann
Produced by
Screenplay by
Based onThe Great Gatsby
by F. Scott Fitzgerald
Starring
Music byCraig Armstrong
CinematographySimon Duggan
Edited by
Production
companies
Distributed by
Release date
  • May 1, 2013 (New York City)
  • May 10, 2013 (United States)
  • May 30, 2013 (Australia)
Running time
142 minutes[1]
Country
  • Australia
  • United States
LanguageEnglish
Budget$105 million[2][3]
Box office$353.6 million[3]

 

 

 

The Great Gatsby 2013 x264 720p Esub BluRay Dual Audio English Hindi GOPI SAHI


Format                         : Matroska
Format version                 : Version 4
File size                      : 1.10 GiB
Duration                       : 2 h 22 min
Overall bit rate               : 1 110 kb/s
Movie name                     : The Great Gatsby 2013 GOPI SAHI
Encoded date                   : UTC 2020-10-09 07:31:11

Video
ID                             : 1
Format                         : AVC
Format/Info                    : Advanced Video Codec
Format profile                 : [email protected]
Format settings                : CABAC / 5 Ref Frames
Format settings, CABAC         : Yes
Format settings, Reference fra : 5 frames
Codec ID                       : V_MPEG4/ISO/AVC
Duration                       : 2 h 22 min
Bit rate                       : 899 kb/s
Width                          : 1 280 pixels
Height                         : 534 pixels
Display aspect ratio           : 2.40:1
Frame rate mode                : Constant
Frame rate                     : 23.976 (24000/1001) FPS
Color space                    : YUV
Chroma subsampling             : 4:2:0
Bit depth                      : 8 bits
Scan type                      : Progressive
Bits/(Pixel*Frame)             : 0.055
Stream size                    : 913 MiB (81%)
Title                          : GOPI SAHI
Writing library                : x264 core 157 r2935 545de2f

Audio #1
ID                             : 2
Format                         : AAC LC
Format/Info                    : Advanced Audio Codec Low Complexity
Codec ID                       : A_AAC-2
Duration                       : 2 h 22 min
Bit rate                       : 96.0 kb/s
Channel(s)                     : 2 channels
Channel layout                 : L R
Sampling rate                  : 48.0 kHz
Frame rate                     : 46.875 FPS (1024 SPF)
Compression mode               : Lossy
Delay relative to video        : -16 ms
Stream size                    : 97.8 MiB (9%)
Title                          : GOPI SAHI
Language                       : Hindi
Default                        : Yes
Forced                         : No

Audio #2
ID                             : 3
Format                         : AAC LC
Format/Info                    : Advanced Audio Codec Low Complexity
Codec ID                       : A_AAC-2
Duration                       : 2 h 22 min
Bit rate                       : 96.0 kb/s
Channel(s)                     : 2 channels
Channel layout                 : L R
Sampling rate                  : 48.0 kHz
Frame rate                     : 46.875 FPS (1024 SPF)
Compression mode               : Lossy
Delay relative to video        : -21 ms
Stream size                    : 98.0 MiB (9%)
Title                          : GOPI SAHI
Language                       : English
Default                        : No
Forced                         : No

Text
ID                             : 4
Format                         : PGS
Muxing mode                    : zlib
Codec ID                       : S_HDMV/PGS
Codec ID/Info                  : Picture based subtitle format used on BDs/HD-DVDs
Duration                       : 2 h 20 min
Bit rate                       : 34.5 kb/s
Count of elements              : 4642
Stream size                    : 34.8 MiB (3%)
Title                          : GOPI SAHI
Language                       : English
Default                        : Yes
Forced                         : Yes

Menu
00:00:00.000                   : :00:00:00.000
00:11:04.080                   : :00:11:04.080
00:22:56.000                   : :00:22:55.833
00:34:27.065                   : :00:34:26.898
00:44:48.853                   : :00:44:48.728
00:55:36.458                   : :00:55:36.333
01:06:20.768                   : :01:06:20.643
01:18:27.786                   : :01:18:27.786
01:31:13.969                   : :01:31:13.927
01:44:12.121                   : :01:44:11.954
01:56:35.322                   : :01:56:35.155
02:05:46.289                   : :02:05:46.122
02:09:41.190                   : :02:09:40.982

 




 

Post a Comment

0 Comments