The Great Wall 2016 x264 720p BluRay Dual Audio English Hindi GOPI SAHI

The Great Wall (2016)

 
 
In ancient China, a group of European mercenaries encounters a secret army that maintains and defends the Great Wall of China against a horde of monstrous creatures.
EN

Director:

Yimou Zhang

Writers:

Carlo Bernard (screenplay), Doug Miro (screenplay) | 4 more credits »
 
5.9/10
123,217

Simplified长城
MandarinCháng Chéng
Directed byZhang Yimou
Produced by
Screenplay by
Story by
Starring
Music byRamin Djawadi
Cinematography
Edited byMary Jo Markey
Craig Wood
Production
company
Distributed by
Release date
  • December 6, 2016 (Beijing)
  • December 16, 2016 (China)
  • February 17, 2017 (United States)
Running time
103 minutes[4]
Country
Language
  • English
  • Chinese
  • Mandarin
Budget$150 million[6]
Box office$334.9 million[4]

 

The Great Wall 2016 x264 720p BluRay Dual Audio English Hindi GOPI SAHI


Format                         : Matroska
Format version                 : Version 4
File size                      : 807 MiB
Duration                       : 1 h 43 min
Overall bit rate               : 1 093 kb/s
Movie name                     : The Great Wall 2016 GOPI SAHI
Encoded date                   : UTC 2020-10-23 04:23:08

Video
ID                             : 1
Format                         : AVC
Format/Info                    : Advanced Video Codec
Format profile                 : [email protected]
Format settings                : CABAC / 5 Ref Frames
Format settings, CABAC         : Yes
Format settings, Reference fra : 5 frames
Codec ID                       : V_MPEG4/ISO/AVC
Duration                       : 1 h 43 min
Bit rate                       : 899 kb/s
Width                          : 1 280 pixels
Height                         : 536 pixels
Display aspect ratio           : 2.40:1
Frame rate mode                : Constant
Frame rate                     : 23.976 (24000/1001) FPS
Color space                    : YUV
Chroma subsampling             : 4:2:0
Bit depth                      : 8 bits
Scan type                      : Progressive
Bits/(Pixel*Frame)             : 0.055
Stream size                    : 662 MiB (82%)
Title                          : GOPI SAHI
Writing library                : x264 core 157 r2935 545de2f

Audio #1
ID                             : 2
Format                         : AAC LC
Format/Info                    : Advanced Audio Codec Low Complexity
Codec ID                       : A_AAC-2
Duration                       : 1 h 43 min
Bit rate                       : 96.0 kb/s
Channel(s)                     : 2 channels
Channel layout                 : L R
Sampling rate                  : 48.0 kHz
Frame rate                     : 46.875 FPS (1024 SPF)
Compression mode               : Lossy
Delay relative to video        : -26 ms
Stream size                    : 71.0 MiB (9%)
Title                          : GOPI SAHI
Language                       : Hindi
Default                        : Yes
Forced                         : No

Audio #2
ID                             : 3
Format                         : AAC LC
Format/Info                    : Advanced Audio Codec Low Complexity
Codec ID                       : A_AAC-2
Duration                       : 1 h 43 min
Bit rate                       : 96.0 kb/s
Channel(s)                     : 2 channels
Channel layout                 : L R
Sampling rate                  : 48.0 kHz
Frame rate                     : 46.875 FPS (1024 SPF)
Compression mode               : Lossy
Delay relative to video        : -26 ms
Stream size                    : 71.0 MiB (9%)
Title                          : GOPI SAHI
Language                       : English
Default                        : No
Forced                         : No

 



 MAGNET

TORRENT

MULTIUP


DWONLOAD AUTO START IN 20 SEC WAIT

DWONLOAD AUTO START IN 20 SEC WAIT

GDRIVE

CLOUDRU

MEDIAFIRE


DOSYA

USAUPLOAD

ONLINE 720P