The Grey 2020 x264 720p Esub AmaZoNe Hindi GOPI SAHI

Dhoosarit - the Grey (2020)


A painter who has grown up overseas and lives in a metropolitan city now has returned back to Chhattisgarh to sell off his property after his father's death. Terror is like a slow poison in... See full summary »
EN

Director:

Tushar Waghela

Writer:

Tushar Waghela





Format                         : Matroska
Format version                 : Version 4
File size                      : 640 MiB
Duration                       : 1 h 29 min
Overall bit rate               : 997 kb/s
Movie name                     : The Grey 2020 GOPI SAHI
Encoded date                   : UTC 2020-10-02 02:46:50

Video
ID                             : 1
Format                         : AVC
Format/Info                    : Advanced Video Codec
Format profile                 : [email protected]
Format settings                : CABAC / 5 Ref Frames
Format settings, CABAC         : Yes
Format settings, Reference fra : 5 frames
Codec ID                       : V_MPEG4/ISO/AVC
Duration                       : 1 h 29 min
Bit rate                       : 899 kb/s
Width                          : 1 280 pixels
Height                         : 720 pixels
Display aspect ratio           : 16:9
Frame rate mode                : Constant
Frame rate                     : 23.976 (24000/1001) FPS
Color space                    : YUV
Chroma subsampling             : 4:2:0
Bit depth                      : 8 bits
Scan type                      : Progressive
Bits/(Pixel*Frame)             : 0.041
Stream size                    : 576 MiB (90%)
Title                          : GOPI SAHI
Writing library                : x264 core 157 r2935 545de2f

Audio
ID                             : 2
Format                         : AAC LC
Format/Info                    : Advanced Audio Codec Low Complexity
Codec ID                       : A_AAC-2
Duration                       : 1 h 29 min
Bit rate                       : 96.0 kb/s
Channel(s)                     : 2 channels
Channel layout                 : L R
Sampling rate                  : 48.0 kHz
Frame rate                     : 46.875 FPS (1024 SPF)
Compression mode               : Lossy
Delay relative to video        : -21 ms
Stream size                    : 61.8 MiB (10%)
Title                          : GOPI SAHI
Language                       : Hindi
Default                        : Yes
Forced                         : No

Text
ID                             : 3
Format                         : UTF-8
Codec ID                       : S_TEXT/UTF8
Codec ID/Info                  : UTF-8 Plain Text
Duration                       : 1 h 29 min
Bit rate                       : 18 b/s
Count of elements              : 388
Stream size                    : 12.0 KiB (0%)
Title                          : GOPI SAHI
Language                       : English
Default                        : Yes
Forced                         : No



Post a Comment

0 Comments