The Hangover 2009 x264 720p Esub BluRay Dual Audio English Hindi GOPI SAHI

The Hangover (2009)


R | | Comedy | 5 June 2009 (USA)
Three buddies wake up from a bachelor party in Las Vegas, with no memory of the previous night and the bachelor missing. They make their way around the city in order to find their friend before his wedding.
EN

Director:

Todd Phillips
7.7/10

Directed byTodd Phillips
Produced by
Written by
Starring
Music byChristophe Beck
CinematographyLawrence Sher
Edited byDebra Neil-Fisher
Production
companies
Distributed byWarner Bros. Pictures
Release date
  • May 30, 2009 (The Hague)
  • June 5, 2009 (United States)
Running time
100 minutes[1]
CountryUnited States
LanguageEnglish
Budget$35 million[2]
Box office$469.3 million[3]







The Hangover 2009 x264 720p Esub BluRay Dual Audio English Hindi GOPI SAHI

Format                         : Matroska
Format version                 : Version 4
File size                      : 860 MiB
Duration                       : 1 h 47 min
Overall bit rate               : 1 114 kb/s
Movie name                     : The Hangover 2009 GOPI SAHI
Encoded date                   : UTC 2020-10-06 15:00:21

Video
ID                             : 1
Format                         : AVC
Format/Info                    : Advanced Video Codec
Format profile                 : [email protected]
Format settings                : CABAC / 5 Ref Frames
Format settings, CABAC         : Yes
Format settings, Reference fra : 5 frames
Codec ID                       : V_MPEG4/ISO/AVC
Duration                       : 1 h 47 min
Bit rate                       : 899 kb/s
Width                          : 1 280 pixels
Height                         : 534 pixels
Display aspect ratio           : 2.40:1
Frame rate mode                : Constant
Frame rate                     : 23.976 (24000/1001) FPS
Color space                    : YUV
Chroma subsampling             : 4:2:0
Bit depth                      : 8 bits
Scan type                      : Progressive
Bits/(Pixel*Frame)             : 0.055
Stream size                    : 693 MiB (81%)
Title                          : GOPI SAHI
Writing library                : x264 core 157 r2935 545de2f

Audio #1
ID                             : 2
Format                         : AAC LC
Format/Info                    : Advanced Audio Codec Low Complexity
Codec ID                       : A_AAC-2
Duration                       : 1 h 47 min
Bit rate                       : 96.0 kb/s
Channel(s)                     : 2 channels
Channel layout                 : L R
Sampling rate                  : 48.0 kHz
Frame rate                     : 46.875 FPS (1024 SPF)
Compression mode               : Lossy
Delay relative to video        : -21 ms
Stream size                    : 74.1 MiB (9%)
Title                          : GOPI SAHI
Language                       : Hindi
Default                        : Yes
Forced                         : No

Audio #2
ID                             : 3
Format                         : AAC LC
Format/Info                    : Advanced Audio Codec Low Complexity
Codec ID                       : A_AAC-2
Duration                       : 1 h 47 min
Bit rate                       : 96.0 kb/s
Channel(s)                     : 2 channels
Channel layout                 : L R
Sampling rate                  : 48.0 kHz
Frame rate                     : 46.875 FPS (1024 SPF)
Compression mode               : Lossy
Delay relative to video        : -12 ms
Stream size                    : 74.3 MiB (9%)
Title                          : GOPI SAHI
Language                       : English
Default                        : No
Forced                         : No

Text
ID                             : 4
Format                         : PGS
Muxing mode                    : zlib
Codec ID                       : S_HDMV/PGS
Codec ID/Info                  : Picture based subtitle format used on BDs/HD-DVDs
Duration                       : 1 h 47 min
Bit rate                       : 46.9 kb/s
Count of elements              : 3602
Stream size                    : 36.0 MiB (4%)
Title                          : GOPI SAHI
Language                       : English
Default                        : No
Forced                         : No

Menu
00:00:00.000                   : :Not Gonna Happen
00:03:43.432                   : :Mature Friends
00:11:58.927                   : :Is He All There?
00:16:54.055                   : :Letting the Dogs Out
00:23:06.176                   : :Wolf Pack
00:27:25.352                   : :Not-Good
00:33:39.684                   : :Which Part Is Fun?
00:38:43.446                   : :Hospital Visit
00:41:43.710                   : :Here Bums the Groom
00:44:57.695                   : :Start the Tractor
00:48:12.348                   : :Loserville
00:52:56.298                   : :Target Practice
00:57:29.613                   : :Revelations by the Trunkload
01:03:09.411                   : :That Was Mike Tyson
01:06:30.236                   : :What do Tigers Dream Of?
01:11:44.217                   : :On Camera
01:14:13.908                   : :Lucky Charm
01:18:48.349                   : :All in the Cards
01:22:40.205                   : :Mixed Up the Bags
01:28:56.248                   : :Doug's Location
01:32:06.062                   : :Making Their Date
01:36:37.750                   : :Marriage Vow
01:39:04.147                   : :Not How This Works
01:43:00.257                   : :Evidence and End Credits