The Hangover Part II 2011 x264 720p Esub BluRay Dual Audio English Hindi GOPI SAHI

The Hangover Part II (2011)

 
R | | Comedy | 26 May 2011 (USA) 
 
Two years after the bachelor party in Las Vegas, Phil, Stu, Alan, and Doug jet to Thailand for Stu's wedding. Stu's plan for a subdued pre-wedding brunch, however, goes seriously awry.
EN

Director:

Todd Phillips
 
6.4/10
457,814
Directed byTodd Phillips
Produced by
Written by
Based on
Starring
Music byChristophe Beck
CinematographyLawrence Sher
Edited by
Production
companies
Distributed byWarner Bros. Pictures
Release date
Running time
101 minutes[1]
CountryUnited States
LanguageEnglish
Budget$80 million[2]
Box office$586.8 million[2]

 

 

The Hangover Part II 2011 x264 720p Esub BluRay Dual Audio English Hindi GOPI SAHI


Format                         : Matroska
Format version                 : Version 4
File size                      : 810 MiB
Duration                       : 1 h 41 min
Overall bit rate               : 1 112 kb/s
Movie name                     : The Hangover Part II 2011 GOPI SAHI
Encoded date                   : UTC 2020-10-09 02:29:36

Video
ID                             : 1
Format                         : AVC
Format/Info                    : Advanced Video Codec
Format profile                 : [email protected]
Format settings                : CABAC / 5 Ref Frames
Format settings, CABAC         : Yes
Format settings, Reference fra : 5 frames
Codec ID                       : V_MPEG4/ISO/AVC
Duration                       : 1 h 41 min
Bit rate                       : 899 kb/s
Width                          : 1 280 pixels
Height                         : 534 pixels
Display aspect ratio           : 2.40:1
Frame rate mode                : Constant
Frame rate                     : 23.976 (24000/1001) FPS
Color space                    : YUV
Chroma subsampling             : 4:2:0
Bit depth                      : 8 bits
Scan type                      : Progressive
Bits/(Pixel*Frame)             : 0.055
Stream size                    : 654 MiB (81%)
Title                          : GOPI SAHI
Writing library                : x264 core 157 r2935 545de2f


Audio #1
ID                             : 2
Format                         : AAC LC
Format/Info                    : Advanced Audio Codec Low Complexity
Codec ID                       : A_AAC-2
Duration                       : 1 h 41 min
Bit rate                       : 96.0 kb/s
Channel(s)                     : 2 channels
Channel layout                 : L R
Sampling rate                  : 48.0 kHz
Frame rate                     : 46.875 FPS (1024 SPF)
Compression mode               : Lossy
Stream size                    : 70.2 MiB (9%)
Title                          : GOPI SAHI
Language                       : Hindi
Default                        : Yes
Forced                         : No

Audio #2
ID                             : 3
Format                         : AAC LC
Format/Info                    : Advanced Audio Codec Low Complexity
Codec ID                       : A_AAC-2
Duration                       : 1 h 41 min
Bit rate                       : 96.0 kb/s
Channel(s)                     : 2 channels
Channel layout                 : L R
Sampling rate                  : 48.0 kHz
Frame rate                     : 46.875 FPS (1024 SPF)
Compression mode               : Lossy
Delay relative to video        : -12 ms
Stream size                    : 70.1 MiB (9%)
Title                          : GOPI SAHI
Language                       : English
Default                        : No
Forced                         : No

Text
ID                             : 4
Format                         : PGS
Muxing mode                    : zlib
Codec ID                       : S_HDMV/PGS
Codec ID/Info                  : Picture based subtitle format used on BDs/HD-DVDs
Duration                       : 1 h 40 min
Bit rate                       : 41.3 kb/s
Count of elements              : 3358
Stream size                    : 29.8 MiB (4%)
Title                          : GOPI SAHI
Language                       : English
Default                        : No
Forced                         : No

Menu
00:00:00.000                   : :Chapter 1
00:08:59.998                   : :Chapter 2
00:17:02.730                   : :Chapter 3
00:24:20.709                   : :Chapter 4
00:34:00.747                   : :Chapter 5
00:44:21.951                   : :Chapter 6
00:54:58.504                   : :Chapter 7
01:04:56.101                   : :Chapter 8
01:13:42.877                   : :Chapter 9
01:23:35.219                   : :Chapter 10
01:33:01.451                   : :Chapter 11
01:37:07.447                   : :Chapter 12




MAGNET

TORRENT


MULTIUP

ANONFILES

BAYFILES

DWONLOAD AUTO START IN 20 SEC WAIT

DWONLOAD AUTO START IN 20 SEC WAIT

GDRIVE

CLOUDRU

MEDIAFIRE

DOSYA

USAUPLOAD


ONLINE 720P

ONLINE 720P 2
 

Post a Comment

0 Comments