The Hangover Part III 2013 x264 720p Esub BluRay Dual Audio English Hindi GOPI SAHI

The Hangover Part III (2013)

R | | Comedy, Crime | 23 May 2013 (USA)
 
When one of their own is kidnapped by an angry gangster, the Wolf Pack must track down Mr. Chow, who has escaped from prison and is on the run.
EN

Director:

Todd Phillips
 
5.8/10
289,309
Directed byTodd Phillips
Produced by
Written by
Based onCharacters
by Jon Lucas
Scott Moore
Starring
Music byChristophe Beck
CinematographyLawrence Sher
Edited by
Production
companies
Distributed byWarner Bros. Pictures
Release date
Running time
100 minutes[1]
CountryUnited States
LanguageEnglish
Budget$103 million[2][3]
Box office$362 million[3]


The Hangover Part III 2013 x264 720p Esub BluRay Dual Audio English Hindi GOPI SAHI


Format                         : Matroska
Format version                 : Version 4
File size                      : 784 MiB
Duration                       : 1 h 40 min
Overall bit rate               : 1 094 kb/s
Movie name                     : The Hangover Part III 2013 GOPI SAHI
Encoded date                   : UTC 2020-10-14 10:22:59

Video
ID                             : 1
Format                         : AVC
Format/Info                    : Advanced Video Codec
Format profile                 : [email protected]
Format settings                : CABAC / 5 Ref Frames
Format settings, CABAC         : Yes
Format settings, Reference fra : 5 frames
Codec ID                       : V_MPEG4/ISO/AVC
Duration                       : 1 h 40 min
Bit rate                       : 899 kb/s
Width                          : 1 280 pixels
Height                         : 534 pixels
Display aspect ratio           : 2.40:1
Frame rate mode                : Constant
Frame rate                     : 23.976 (24000/1001) FPS
Color space                    : YUV
Chroma subsampling             : 4:2:0
Bit depth                      : 8 bits
Scan type                      : Progressive
Bits/(Pixel*Frame)             : 0.055
Stream size                    : 644 MiB (82%)
Title                          : GOPI SAHI
Writing library                : x264 core 157 r2935 545de2f

Audio #1
ID                             : 2
Format                         : AAC LC
Format/Info                    : Advanced Audio Codec Low Complexity
Codec ID                       : A_AAC-2
Duration                       : 1 h 40 min
Bit rate                       : 96.0 kb/s
Channel(s)                     : 2 channels
Channel layout                 : L R
Sampling rate                  : 48.0 kHz
Frame rate                     : 46.875 FPS (1024 SPF)
Compression mode               : Lossy
Delay relative to video        : -104 ms
Stream size                    : 69.0 MiB (9%)
Title                          : GOPI SAHI
Language                       : Hindi
Default                        : Yes
Forced                         : No

Audio #2
ID                             : 3
Format                         : AAC LC
Format/Info                    : Advanced Audio Codec Low Complexity
Codec ID                       : A_AAC-2
Duration                       : 1 h 40 min
Bit rate                       : 96.0 kb/s
Channel(s)                     : 2 channels
Channel layout                 : L R
Sampling rate                  : 48.0 kHz
Frame rate                     : 46.875 FPS (1024 SPF)
Compression mode               : Lossy
Delay relative to video        : -104 ms
Stream size                    : 69.0 MiB (9%)
Title                          : GOPI SAHI
Language                       : English
Default                        : No
Forced                         : No




 MAGNET

TORRENT

MULTIUP

ANONFILES

BAYFILES

DWONLOAD AUTO START IN 20 SEC WAIT

DWONLOAD AUTO START IN 20 SEC WAIT

GDRIVE

CLOUDRU


MEDIAFIRE

DOSYA

USAUPLOAD

ONLINE 720P

ONLINE 720P 2

 

Post a Comment

0 Comments