The Mummy 1999 x264 720p Esub BluRay Dual Audio English Hindi GOPI SAHI

The Mummy (1999)



PG-13 | | Action, Adventure, Fantasy | 7 May 1999 (USA)
At an archaeological dig in the ancient city of Hamunaptra, an American serving in the French Foreign Legion accidentally awakens a mummy who begins to wreck havoc as he searches for the reincarnation of his long-lost love.
EN

Director:

Stephen Sommers

Writers:

Stephen Sommers (screen story), Lloyd Fonvielle (screen story) | 2 more credits »

7.0/10
385,392

Directed byStephen Sommers
Produced byJames Jacks
Sean Daniel
Screenplay byStephen Sommers
Story byStephen Sommers
Lloyd Fonvielle
Kevin Jarre
Starring
Music byJerry Goldsmith
CinematographyAdrian Biddle
Edited byBob Ducsay
Production
company
Alphaville Films
Distributed byUniversal Pictures
Release date
  • May 4, 1999 (Universal City)
  • May 7, 1999 (United States)
Running time
125 minutes
CountryUnited States
LanguageEnglish[1]
Budget$80 million[2]
Box office$416.4 million[2]


The Mummy 1999 GOPI SAHI

Format                         : Matroska
Format version                 : Version 4
File size                      : 980 MiB
Duration                       : 2 h 4 min
Overall bit rate               : 1 098 kb/s
Movie name                     : The Mummy 1999 GOPI SAHI
Encoded date                   : UTC 2020-10-05 05:10:08
Attachments                    : Hammer Logo.jpg

Video
ID                             : 1
Format                         : AVC
Format/Info                    : Advanced Video Codec
Format profile                 : [email protected]
Format settings                : CABAC / 5 Ref Frames
Format settings, CABAC         : Yes
Format settings, Reference fra : 5 frames
Codec ID                       : V_MPEG4/ISO/AVC
Duration                       : 2 h 4 min
Bit rate                       : 899 kb/s
Width                          : 1 280 pixels
Height                         : 544 pixels
Display aspect ratio           : 2.35:1
Frame rate mode                : Constant
Frame rate                     : 23.976 (24000/1001) FPS
Color space                    : YUV
Chroma subsampling             : 4:2:0
Bit depth                      : 8 bits
Scan type                      : Progressive
Bits/(Pixel*Frame)             : 0.054
Stream size                    : 802 MiB (82%)
Title                          : GOPI SAHI
Writing library                : x264 core 157 r2935 545de2f

Audio #1
ID                             : 2
Format                         : AAC LC
Format/Info                    : Advanced Audio Codec Low Complexity
Codec ID                       : A_AAC-2
Duration                       : 2 h 4 min
Bit rate                       : 96.0 kb/s
Channel(s)                     : 2 channels
Channel layout                 : L R
Sampling rate                  : 48.0 kHz
Frame rate                     : 46.875 FPS (1024 SPF)
Compression mode               : Lossy
Delay relative to video        : 1 s 29 ms
Stream size                    : 86.1 MiB (9%)
Title                          : GOPI SAHI
Language                       : Hindi
Default                        : Yes
Forced                         : No

Audio #2
ID                             : 3
Format                         : AAC LC
Format/Info                    : Advanced Audio Codec Low Complexity
Codec ID                       : A_AAC-2
Duration                       : 2 h 4 min
Bit rate                       : 96.0 kb/s
Channel(s)                     : 2 channels
Channel layout                 : L R
Sampling rate                  : 48.0 kHz
Frame rate                     : 46.875 FPS (1024 SPF)
Compression mode               : Lossy
Delay relative to video        : -21 ms
Stream size                    : 86.1 MiB (9%)
Title                          : GOPI SAHI
Language                       : English
Default                        : No
Forced                         : No

Text #1
ID                             : 4
Format                         : PGS
Muxing mode                    : zlib
Codec ID                       : S_HDMV/PGS
Codec ID/Info                  : Picture based subtitle format used on BDs/HD-DVDs
Duration                       : 2 h 3 min
Bit rate                       : 10.2 kb/s
Count of elements              : 2258
Stream size                    : 9.04 MiB (1%)
Title                          : GOPI SAHI
Language                       : Hindi
Default                        : No
Forced                         : No

Text #2
ID                             : 5
Format                         : UTF-8
Codec ID                       : S_TEXT/UTF8
Codec ID/Info                  : UTF-8 Plain Text
Duration                       : 1 h 55 min
Bit rate                       : 41 b/s
Count of elements              : 1103
Stream size                    : 35.4 KiB (0%)
Title                          : GOPI SAHI
Language                       : English
Default                        : No
Forced                         : No