The Mummy Tomb Of The Dragon Emperor 2008 x264 720p Esub BluRay Dual Audio English Hindi GOPI SAHI

The Mummy: Tomb of the Dragon Emperor (2008)


In the Far East, Alex O'Connell, the son of famed mummy fighters Rick and Evy O'Connell, unearths the mummy of the first Emperor of Qin -- a shape-shifting entity cursed by a witch centuries ago.
EN

Director:

Rob Cohen

5.2/10
149,050
Directed byRob Cohen
Produced by
Written by
Based onCharacters
by Stephen Sommers
Lloyd Fonvielle
Kevin Jarre
Starring
Music byRandy Edelman
CinematographySimon Duggan
Edited by
  • Joel Negron
  • Kelly Matsumoto
Production
company
Distributed byUniversal Pictures
Release date
  • July 24, 2008 (Moscow)
  • August 1, 2008 (United States)
Running time
112 minutes
CountryUnited States
LanguageEnglish
Mandarin
Budget$145 million[1]
Box office$403.4 million[1]



The Mummy Tomb of the Dragon Emperor 2008 GOPI SAHI

Format                         : Matroska
Format version                 : Version 4
File size                      : 876 MiB
Duration                       : 1 h 51 min
Overall bit rate               : 1 097 kb/s
Movie name                     : The Mummy Tomb of the Dragon Emperor 2008 GOPI SAHI
Encoded date                   : UTC 2020-10-05 11:47:59
Writing application            : mkvmerge v46.0.0 ('No Deeper Escape') 32-bit
Writing library                : libebml v1.3.10 + libmatroska v1.5.2
Attachments                    : Hammer Logo.jpg

Video
ID                             : 1
Format                         : AVC
Format/Info                    : Advanced Video Codec
Format profile                 : [email protected]
Format settings                : CABAC / 5 Ref Frames
Format settings, CABAC         : Yes
Format settings, Reference fra : 5 frames
Codec ID                       : V_MPEG4/ISO/AVC
Duration                       : 1 h 51 min
Bit rate                       : 899 kb/s
Width                          : 1 280 pixels
Height                         : 534 pixels
Display aspect ratio           : 2.40:1
Frame rate mode                : Constant
Frame rate                     : 23.976 (24000/1001) FPS
Color space                    : YUV
Chroma subsampling             : 4:2:0
Bit depth                      : 8 bits
Scan type                      : Progressive
Bits/(Pixel*Frame)             : 0.055
Stream size                    : 718 MiB (82%)
Title                          : GOPI SAHI
Writing library                : x264 core 157 r2935 545de2f

Audio #1
ID                             : 2
Format                         : AAC LC
Format/Info                    : Advanced Audio Codec Low Complexity
Codec ID                       : A_AAC-2
Duration                       : 1 h 51 min
Bit rate                       : 96.0 kb/s
Channel(s)                     : 2 channels
Channel layout                 : L R
Sampling rate                  : 48.0 kHz
Frame rate                     : 46.875 FPS (1024 SPF)
Compression mode               : Lossy
Delay relative to video        : 2 s 429 ms
Stream size                    : 77.0 MiB (9%)
Title                          : GOPI SAHI
Language                       : Hindi
Default                        : Yes
Forced                         : No

Audio #2
ID                             : 3
Format                         : AAC LC
Format/Info                    : Advanced Audio Codec Low Complexity
Codec ID                       : A_AAC-2
Duration                       : 1 h 51 min
Bit rate                       : 96.0 kb/s
Channel(s)                     : 2 channels
Channel layout                 : L R
Sampling rate                  : 48.0 kHz
Frame rate                     : 46.875 FPS (1024 SPF)
Compression mode               : Lossy
Delay relative to video        : -21 ms
Stream size                    : 77.0 MiB (9%)
Title                          : GOPI SAHI
Language                       : English
Default                        : No
Forced                         : No

Text #1
ID                             : 4
Format                         : PGS
Muxing mode                    : zlib
Codec ID                       : S_HDMV/PGS
Codec ID/Info                  : Picture based subtitle format used on BDs/HD-DVDs
Duration                       : 1 h 40 min
Bit rate                       : 10.1 kb/s
Count of elements              : 1862
Stream size                    : 7.27 MiB (1%)
Title                          : GOPI SAHI
Language                       : Hindi
Default                        : No
Forced                         : No

Text #2
ID                             : 5
Format                         : UTF-8
Codec ID                       : S_TEXT/UTF8
Codec ID/Info                  : UTF-8 Plain Text
Duration                       : 1 h 40 min
Bit rate                       : 4 b/s
Count of elements              : 133
Stream size                    : 3.13 KiB (0%)
Title                          : GOPI SAHI
Language                       : English
Default                        : No
Forced                         : No





Post a Comment

0 Comments