The Purge 2013 x264 720p Esub BluRay Dual Audio English Hindi GOPI SAHI

The Purge (2013)

 
A wealthy family is held hostage for harboring the target of a murderous syndicate during the Purge, a 12-hour period in which any and all crime is legal.
EN

Director:

James DeMonaco

Writer:

James DeMonaco
5.7/10
198,851

Directed byJames DeMonaco
Produced by
Written byJames DeMonaco
Starring
Music byNathan Whitehead
CinematographyJacques Jouffret
Edited byPeter Gvozdas
Production
companies
Distributed byUniversal Pictures[1]
Release date
Running time
85 minutes[2]
CountryUnited States
LanguageEnglish
Budget$3 million[3]
Box office$89.3 million[4]



The Purge 2013 GOPI SAHI

Format                         : Matroska
Format version                 : Version 4
File size                      : 679 MiB
Duration                       : 1 h 25 min
Overall bit rate               : 1 114 kb/s
Movie name                     : 1 The Purge 2013 GOPI SAHI
Encoded date                   : UTC 2020-10-04 10:18:49

Video
ID                             : 1
Format                         : AVC
Format/Info                    : Advanced Video Codec
Format profile                 : [email protected]
Format settings                : CABAC / 5 Ref Frames
Format settings, CABAC         : Yes
Format settings, Reference fra : 5 frames
Codec ID                       : V_MPEG4/ISO/AVC
Duration                       : 1 h 25 min
Bit rate                       : 899 kb/s
Width                          : 1 280 pixels
Height                         : 644 pixels
Display aspect ratio           : 1.988
Frame rate mode                : Constant
Frame rate                     : 23.976 (24000/1001) FPS
Color space                    : YUV
Chroma subsampling             : 4:2:0
Bit depth                      : 8 bits
Scan type                      : Progressive
Bits/(Pixel*Frame)             : 0.045
Stream size                    : 548 MiB (81%)
Title                          : GOPI SAHI
Writing library                : x264 core 157 r2935 545de2f

Audio #1
ID                             : 2
Format                         : AAC LC
Format/Info                    : Advanced Audio Codec Low Complexity
Codec ID                       : A_AAC-2
Duration                       : 1 h 25 min
Bit rate                       : 96.0 kb/s
Channel(s)                     : 2 channels
Channel layout                 : L R
Sampling rate                  : 48.0 kHz
Frame rate                     : 46.875 FPS (1024 SPF)
Compression mode               : Lossy
Delay relative to video        : -17 ms
Stream size                    : 58.7 MiB (9%)
Title                          : GOPI SAHI
Language                       : Hindi
Default                        : Yes
Forced                         : No

Audio #2
ID                             : 3
Format                         : AAC LC
Format/Info                    : Advanced Audio Codec Low Complexity
Codec ID                       : A_AAC-2
Duration                       : 1 h 25 min
Bit rate                       : 96.0 kb/s
Channel(s)                     : 2 channels
Channel layout                 : L R
Sampling rate                  : 48.0 kHz
Frame rate                     : 46.875 FPS (1024 SPF)
Compression mode               : Lossy
Delay relative to video        : -21 ms
Stream size                    : 58.7 MiB (9%)
Title                          : GOPI SAHI
Language                       : English
Default                        : No
Forced                         : No

Text #1
ID                             : 4
Format                         : PGS
Muxing mode                    : zlib
Codec ID                       : S_HDMV/PGS
Codec ID/Info                  : Picture based subtitle format used on BDs/HD-DVDs
Duration                       : 1 h 24 min
Bit rate                       : 23.6 kb/s
Count of elements              : 1884
Stream size                    : 14.2 MiB (2%)
Title                          : GOPI SAHI
Language                       : Hindi
Default                        : No
Forced                         : No

Text #2
ID                             : 5
Format                         : PGS
Muxing mode                    : zlib
Codec ID                       : S_HDMV/PGS
Codec ID/Info                  : Picture based subtitle format used on BDs/HD-DVDs
Duration                       : 1 h 23 min
Bit rate                       : 35.4 kb/s
Count of elements              : 2190
Stream size                    : 21.1 MiB (3%)
Title                          : GOPI SAHI
Language                       : English
Default                        : No
Forced                         : No

Menu
00:00:00.000                   : :Chapter 1
00:04:30.562                   : :Chapter 2
00:07:24.402                   : :Chapter 3
00:13:48.661                   : :Chapter 4
00:18:24.103                   : :Chapter 5
00:23:11.473                   : :Chapter 6
00:28:13.859                   : :Chapter 7
00:31:33.475                   : :Chapter 8
00:35:42.182                   : :Chapter 9
00:39:28.741                   : :Chapter 10
00:44:37.508                   : :Chapter 11
00:47:53.120                   : :Chapter 12
00:50:33.614                   : :Chapter 13
00:56:02.234                   : :Chapter 14
01:00:20.283                   : :Chapter 15
01:03:35.854                   : :Chapter 16
01:07:09.776                   : :Chapter 17
01:11:09.891                   : :Chapter 18
01:16:01.807                   : :Chapter 19
01:19:27.096                   : :Chapter 20




Post a Comment

0 Comments