The Purge- Election Year 2016 x264 720p Esub BluRay Dual Audio English Hindi GOPI SAHI

The Purge: Election Year (2016)


 
Former Police Sergeant Barnes becomes head of security for Senator Charlie Roan, a Presidential candidate targeted for death on Purge night due to her vow to eliminate the Purge.
EN

Director:

James DeMonaco

Writer:

James DeMonaco
6.0/10




Directed byJames DeMonaco
Produced by
Written byJames DeMonaco
Starring
Music byNathan Whitehead
CinematographyJacques Jouffret
Edited byTodd E. Miller
Production
companies
Distributed byUniversal Pictures
Release date
  • July 1, 2016 (United States)
Running time
109 minutes[1]
CountryUnited States
LanguageEnglish
Budget$10 million[2]
Box office$118.6 million[3]




The Purge- Election Year 2016 GOPI SAHI

Format                         : Matroska
Format version                 : Version 4
File size                      : 870 MiB
Duration                       : 1 h 49 min
Overall bit rate               : 1 114 kb/s
Movie name                     : 3 The Purge: Election Year 2016 GOPI SAHI
Encoded date                   : UTC 2020-10-04 11:47:27

Video
ID                             : 1
Format                         : AVC
Format/Info                    : Advanced Video Codec
Format profile                 : [email protected]
Format settings                : CABAC / 5 Ref Frames
Format settings, CABAC         : Yes
Format settings, Reference fra : 5 frames
Codec ID                       : V_MPEG4/ISO/AVC
Duration                       : 1 h 48 min
Bit rate                       : 899 kb/s
Width                          : 1 280 pixels
Height                         : 534 pixels
Display aspect ratio           : 2.40:1
Frame rate mode                : Constant
Frame rate                     : 23.976 (24000/1001) FPS
Color space                    : YUV
Chroma subsampling             : 4:2:0
Bit depth                      : 8 bits
Scan type                      : Progressive
Bits/(Pixel*Frame)             : 0.055
Stream size                    : 699 MiB (80%)
Title                          : GOPI SAHI
Writing library                : x264 core 157 r2935 545de2f

Audio #1
ID                             : 2
Format                         : AAC LC
Format/Info                    : Advanced Audio Codec Low Complexity
Codec ID                       : A_AAC-2
Duration                       : 1 h 49 min
Bit rate                       : 96.0 kb/s
Channel(s)                     : 2 channels
Channel layout                 : L R
Sampling rate                  : 48.0 kHz
Frame rate                     : 46.875 FPS (1024 SPF)
Compression mode               : Lossy
Delay relative to video        : 619 ms
Stream size                    : 75.0 MiB (9%)
Title                          : GOPI SAHI
Language                       : Hindi
Default                        : Yes
Forced                         : No

Audio #2
ID                             : 3
Format                         : AAC LC
Format/Info                    : Advanced Audio Codec Low Complexity
Codec ID                       : A_AAC-2
Duration                       : 1 h 48 min
Bit rate                       : 96.0 kb/s
Channel(s)                     : 2 channels
Channel layout                 : L R
Sampling rate                  : 48.0 kHz
Frame rate                     : 46.875 FPS (1024 SPF)
Compression mode               : Lossy
Delay relative to video        : -21 ms
Stream size                    : 74.8 MiB (9%)
Title                          : GOPI SAHI
Language                       : English
Default                        : No
Forced                         : No

Text #1
ID                             : 4
Format                         : PGS
Muxing mode                    : zlib
Codec ID                       : S_HDMV/PGS
Codec ID/Info                  : Picture based subtitle format used on BDs/HD-DVDs
Duration                       : 1 h 42 min
Bit rate                       : 23.1 kb/s
Count of elements              : 2458
Stream size                    : 17.0 MiB (2%)
Title                          : GOPI SAHI
Language                       : Hindi
Default                        : No
Forced                         : Yes

Text #2
ID                             : 5
Format                         : PGS
Muxing mode                    : zlib
Codec ID                       : S_HDMV/PGS
Codec ID/Info                  : Picture based subtitle format used on BDs/HD-DVDs
Duration                       : 1 h 43 min
Bit rate                       : 40.7 kb/s
Count of elements              : 2872
Stream size                    : 30.1 MiB (3%)
Title                          : GOPI SAHI
Language                       : English
Default                        : No
Forced                         : No

Menu
00:00:00.000                   : :Chapter 1
00:05:47.389                   : :Chapter 2
00:09:22.062                   : :Chapter 3
00:17:15.952                   : :Chapter 4
00:22:49.493                   : :Chapter 5
00:28:43.388                   : :Chapter 6
00:35:58.698                   : :Chapter 7
00:41:50.675                   : :Chapter 8
00:47:03.112                   : :Chapter 9
00:53:30.374                   : :Chapter 10
00:57:31.573                   : :Chapter 11
01:02:20.820                   : :Chapter 12
01:10:43.614                   : :Chapter 13
01:17:32.731                   : :Chapter 14
01:22:16.765                   : :Chapter 15
01:27:03.135                   : :Chapter 16
01:32:12.986                   : :Chapter 17
01:36:17.563                   : :Chapter 18
01:41:35.715                   : :Chapter 19
01:43:37.002                   : :Chapter 20





Post a Comment

0 Comments