The Scorpion King 2002 x264 720p Esub BluRay Dual Audio English Hindi GOPI SAHI

The Scorpion King (2002)


A desert warrior rises up against the evil army that is destroying his homeland. He captures the enemy's key sorcerer, takes her deep into the desert and prepares for a final showdown.
EN

Director:

Chuck Russell

Writers:

Stephen Sommers (story), Jonathan Hales (story) | 3 more credits »
5.5/10


Directed byChuck Russell
Produced by
Screenplay by
Story by
Starring
Music byJohn Debney
CinematographyJohn R. Leonetti
Edited by
Production
company
Distributed byUniversal Pictures
Release date
  • 19 April 2002
Running time
92 minutes
Country
  • United States
  • Germany
  • Belgium
Language
  • English
  • German
  • Dutch
Budget$60 million[1]
Box office$178.8 million[1]



The Scorpion King 2002 GOPI SAHI

Format                         : Matroska
Format version                 : Version 4
File size                      : 719 MiB
Duration                       : 1 h 31 min
Overall bit rate               : 1 100 kb/s
Movie name                     : The Scorpion King 2002 GOPI SAHI
Encoded date                   : UTC 2020-10-05 08:19:45

Video
ID                             : 1
Format                         : AVC
Format/Info                    : Advanced Video Codec
Format profile                 : [email protected]
Format settings                : CABAC / 5 Ref Frames
Format settings, CABAC         : Yes
Format settings, Reference fra : 5 frames
Codec ID                       : V_MPEG4/ISO/AVC
Duration                       : 1 h 31 min
Bit rate                       : 899 kb/s
Width                          : 1 280 pixels
Height                         : 544 pixels
Display aspect ratio           : 2.35:1
Frame rate mode                : Constant
Frame rate                     : 23.976 (24000/1001) FPS
Color space                    : YUV
Chroma subsampling             : 4:2:0
Bit depth                      : 8 bits
Scan type                      : Progressive
Bits/(Pixel*Frame)             : 0.054
Stream size                    : 587 MiB (82%)
Title                          : GOPI SAHI
Writing library                : x264 core 157 r2935 545de2f

Audio #1
ID                             : 2
Format                         : AAC LC
Format/Info                    : Advanced Audio Codec Low Complexity
Codec ID                       : A_AAC-2
Duration                       : 1 h 31 min
Bit rate                       : 96.0 kb/s
Channel(s)                     : 2 channels
Channel layout                 : L R
Sampling rate                  : 48.0 kHz
Frame rate                     : 46.875 FPS (1024 SPF)
Compression mode               : Lossy
Delay relative to video        : 1 s 39 ms
Stream size                    : 63.1 MiB (9%)
Title                          : GOPI SAHI
Language                       : Hindi
Default                        : Yes
Forced                         : No

Audio #2
ID                             : 3
Format                         : AAC LC
Format/Info                    : Advanced Audio Codec Low Complexity
Codec ID                       : A_AAC-2
Duration                       : 1 h 31 min
Bit rate                       : 96.0 kb/s
Channel(s)                     : 2 channels
Channel layout                 : L R
Sampling rate                  : 48.0 kHz
Frame rate                     : 46.875 FPS (1024 SPF)
Compression mode               : Lossy
Delay relative to video        : -21 ms
Stream size                    : 62.9 MiB (9%)
Title                          : GOPI SAHI
Language                       : English
Default                        : No
Forced                         : No

Text
ID                             : 4
Format                         : PGS
Muxing mode                    : zlib
Codec ID                       : S_HDMV/PGS
Codec ID/Info                  : Picture based subtitle format used on BDs/HD-DVDs
Duration                       : 1 h 29 min
Bit rate                       : 22.0 kb/s
Count of elements              : 1424
Stream size                    : 14.1 MiB (2%)
Title                          : GOPI SAHI
Language                       : English
Default                        : Yes
Forced                         : No



















Post a Comment

0 Comments