The Theory of Everything 2014 x264 720p Esub BluRay Dual Audio English Hindi GOPI SAHI

 

The Theory of Everything (2014)

 
 
A look at the relationship between the famous physicist Stephen Hawking and his wife.
EN

Director:

James Marsh

Writers:

Anthony McCarten (screenplay), Jane Hawking (book)
 
7.7/10
394,837
 
 
 
Directed byJames Marsh
Produced by
Screenplay byAnthony McCarten
Based onTravelling to Infinity: My Life with Stephen
by Jane Hawking
Starring
Music byJóhann Jóhannsson
CinematographyBenoît Delhomme
Edited byJinx Godfrey
Production
company
Distributed byFocus Features (United States)
Universal Pictures (International)
Release date
  • 7 November 2014 (TIFF)
  • 1 January 2015 (United Kingdom)
Running time
123 minutes[1][3]
Country
LanguageEnglish
BudgetUS$15 million[5]
Box officeUS$123.7 million[5]

 

The Theory of Everything 2014 x264 720p Esub BluRay Dual Audio English Hindi GOPI SAHI


Format                         : Matroska
Format version                 : Version 4
File size                      : 979 MiB
Duration                       : 2 h 3 min
Overall bit rate               : 1 108 kb/s
Movie name                     : The Theory of Everything 2014 GOPI SAHI
Encoded date                   : UTC 2020-10-17 06:34:14
Writing application            : mkvmerge v46.0.0 ('No Deeper Escape') 32-bit
Writing library                : libebml v1.3.10 + libmatroska v1.5.2

Video
ID                             : 1
Format                         : AVC
Format/Info                    : Advanced Video Codec
Format profile                 : [email protected]
Format settings                : CABAC / 5 Ref Frames
Format settings, CABAC         : Yes
Format settings, Reference fra : 5 frames
Codec ID                       : V_MPEG4/ISO/AVC
Duration                       : 2 h 3 min
Bit rate                       : 899 kb/s
Width                          : 1 280 pixels
Height                         : 534 pixels
Display aspect ratio           : 2.40:1
Frame rate mode                : Constant
Frame rate                     : 23.976 (24000/1001) FPS
Color space                    : YUV
Chroma subsampling             : 4:2:0
Bit depth                      : 8 bits
Scan type                      : Progressive
Bits/(Pixel*Frame)             : 0.055
Stream size                    : 793 MiB (81%)
Title                          : GOPI SAHI
Writing library                : x264 core 157 r2935 545de2f

Audio #1
ID                             : 2
Format                         : AAC LC
Format/Info                    : Advanced Audio Codec Low Complexity
Codec ID                       : A_AAC-2
Duration                       : 2 h 3 min
Bit rate                       : 96.0 kb/s
Channel(s)                     : 2 channels
Channel layout                 : L R
Sampling rate                  : 48.0 kHz
Frame rate                     : 46.875 FPS (1024 SPF)
Compression mode               : Lossy
Delay relative to video        : 3 ms
Stream size                    : 84.9 MiB (9%)
Title                          : GOPI SAHI
Language                       : Hindi
Default                        : Yes
Forced                         : No

Audio #2
ID                             : 3
Format                         : AAC LC
Format/Info                    : Advanced Audio Codec Low Complexity
Codec ID                       : A_AAC-2
Duration                       : 2 h 3 min
Bit rate                       : 96.0 kb/s
Channel(s)                     : 2 channels
Channel layout                 : L R
Sampling rate                  : 48.0 kHz
Frame rate                     : 46.875 FPS (1024 SPF)
Compression mode               : Lossy
Delay relative to video        : -21 ms
Stream size                    : 84.9 MiB (9%)
Title                          : GOPI SAHI
Language                       : English
Default                        : No
Forced                         : No

Text #1
ID                             : 4
Format                         : PGS
Muxing mode                    : zlib
Codec ID                       : S_HDMV/PGS
Codec ID/Info                  : Picture based subtitle format used on BDs/HD-DVDs
Duration                       : 2 h 2 min
Bit rate                       : 18.3 kb/s
Count of elements              : 2309
Stream size                    : 16.0 MiB (2%)
Title                          : GOPI SAHI
Language                       : Hindi
Default                        : No
Forced                         : No

Text #2
ID                             : 5
Format                         : PGS
Muxing mode                    : zlib
Codec ID                       : S_HDMV/PGS
Codec ID/Info                  : Picture based subtitle format used on BDs/HD-DVDs
Duration                       : 1 h 53 min
Bit rate                       : 30.5 kb/s
Count of elements              : 2720
Stream size                    : 24.8 MiB (3%)
Title                          : GOPI SAHI
Language                       : English
Default                        : No
Forced                         : No

Menu
00:00:00.000                   : :Chapter 1
00:05:38.839                   : :Chapter 2
00:10:19.619                   : :Chapter 3
00:14:58.648                   : :Chapter 4
00:19:52.525                   : :Chapter 5
00:27:27.479                   : :Chapter 6
00:36:14.673                   : :Chapter 7
00:42:13.239                   : :Chapter 8
00:49:21.542                   : :Chapter 9
00:54:10.622                   : :Chapter 10
01:01:03.785                   : :Chapter 11
01:10:29.517                   : :Chapter 12
01:17:11.085                   : :Chapter 13
01:24:26.228                   : :Chapter 14
01:30:39.100                   : :Chapter 15
01:35:16.961                   : :Chapter 16
01:40:20.932                   : :Chapter 17
01:45:01.045                   : :Chapter 18
01:52:26.448                   : :Chapter 19
01:57:04.309                   : :Chapter 20