The Thief Of Bagdad 1940 x264 720p Esub BluRay Dual Audio English Hindi GOPI SAHI

The Thief of Bagdad (1940)

Not Rated | | Adventure, Family, Fantasy | 25 December 1940 (USA) 
 
 
After being tricked and cast out of Bagdad by the evil Jaffar, King Ahmad joins forces with a thief named Abu to reclaim his throne, the city, and the Princess he loves.
EN

Writers:

Miles Malleson (screen play and dialogue), Lajos Biró (scenario by) (as Lajos Biro) | 1 more credit »
 
7.5/10
11,739
Directed byMichael Powell
Ludwig Berger
Tim Whelan
Uncredited:
Alexander Korda
Zoltan Korda
William Cameron Menzies
Produced byAlexander Korda
Written byLajos Bíró
Miles Malleson
StarringConrad Veidt
Sabu
John Justin
June Duprez
Rex Ingram
Music byMiklós Rózsa
CinematographyGeorge Perinal
Edited byCharles Crichton
Color processTechnicolor
Production
company
Distributed byUnited Artists
Release date
‹See TfM›
  • 5 December 1940 (US)
  • 25 December 1940 (UK)
Running time
106 minutes
CountryUnited Kingdom
United States
LanguageEnglish
Box officeover $1 million (US/Canada)[1]
5,134,653 admissions (France, 1946)[2]


The Thief Of Bagdad 1940 x264 720p Esub BluRay Dual Audio English Hindi GOPI SAHI


Format                         : Matroska
Format version                 : Version 4
File size                      : 831 MiB
Duration                       : 1 h 46 min
Overall bit rate               : 1 095 kb/s
Movie name                     : The Thief Of Bagdad 1940 GOPI SAHI
Encoded date                   : UTC 2020-10-28 05:08:31

Video
ID                             : 1
Format                         : AVC
Format/Info                    : Advanced Video Codec
Format profile                 : [email protected]
Format settings                : CABAC / 5 Ref Frames
Format settings, CABAC         : Yes
Format settings, Reference fra : 5 frames
Codec ID                       : V_MPEG4/ISO/AVC
Duration                       : 1 h 46 min
Bit rate                       : 899 kb/s
Width                          : 1 280 pixels
Height                         : 952 pixels
Display aspect ratio           : 4:3
Frame rate mode                : Constant
Frame rate                     : 24.000 FPS
Color space                    : YUV
Chroma subsampling             : 4:2:0
Bit depth                      : 8 bits
Scan type                      : Progressive
Bits/(Pixel*Frame)             : 0.031
Stream size                    : 682 MiB (82%)
Title                          : GOPI SAHI
Writing library                : x264 core 157 r2935 545de2f

Audio #1
ID                             : 2
Format                         : AAC LC
Format/Info                    : Advanced Audio Codec Low Complexity
Codec ID                       : A_AAC-2
Duration                       : 1 h 46 min
Bit rate                       : 96.0 kb/s
Channel(s)                     : 2 channels
Channel layout                 : L R
Sampling rate                  : 48.0 kHz
Frame rate                     : 46.875 FPS (1024 SPF)
Compression mode               : Lossy
Delay relative to video        : -89 ms
Stream size                    : 73.0 MiB (9%)
Title                          : GOPI SAHI
Language                       : Hindi
Default                        : No
Forced                         : No

Audio #2
ID                             : 3
Format                         : AAC LC
Format/Info                    : Advanced Audio Codec Low Complexity
Codec ID                       : A_AAC-2
Duration                       : 1 h 46 min
Bit rate                       : 96.0 kb/s
Channel(s)                     : 2 channels
Channel layout                 : L R
Sampling rate                  : 48.0 kHz
Frame rate                     : 46.875 FPS (1024 SPF)
Compression mode               : Lossy
Delay relative to video        : -64 ms
Stream size                    : 73.2 MiB (9%)
Title                          : GOPI SAHI
Language                       : English
Default                        : No
Forced                         : No

Text
ID                             : 4
Format                         : ASS
Codec ID                       : S_TEXT/ASS
Codec ID/Info                  : Advanced Sub Station Alpha
Duration                       : 1 h 45 min
Bit rate                       : 78 b/s
Count of elements              : 1055
Compression mode               : Lossless
Stream size                    : 60.5 KiB (0%)
Title                          : GOPI SAHI
Language                       : English
Default                        : Yes
Forced                         : No

 


 

MAGNET

TORRENT


MULTIUP


DWONLOAD AUTO START IN 20 SEC WAIT

DWONLOAD AUTO START IN 20 SEC WAIT

GDRIVE

CLOUDRU

USAUPLOAD

DOSYA

MEDIAFIRE

ONLINE 720P