The Whistleblower 2011 x264 720p Esub NetFLix Dual Audio Hindi English GOPI SAHI

The Whistleblower (2010)

 
 
A drama based on the experiences of Kathryn Bolkovac, a Nebraska cop who served as a peacekeeper in post-war Bosnia and outed the U.N. for covering up a sex trafficking scandal.
EN

Director:

Larysa Kondracki

 

7.1/10

31,257

 

Directed byLarysa Kondracki
Produced byChristina Piovesan
Amy Kaufman
Celine Rattray
Benito Mueller
Wolfgang Mueller
Written byLarysa Kondracki
Eilis Kirwan
StarringRachel Weisz
David Strathairn
Nikolaj Lie Kaas
Anna Anissimova
Monica Bellucci
Vanessa Redgrave
Music byMychael Danna[1]
CinematographyKieran McGuigan[1]
Edited byJulian Clarke[2]
Production
company
Distributed bySamuel Goldwyn Films
Release date
  • 13 September 2010 (TIFF)
  • 12 August 2011 (Canada)
  • 27 October 2011 (Germany)
Running time
112 minutes
CountryCanada
Germany
United States[3]
LanguageEnglish
Box office$2.2 million[4]

 

 
The Whistleblower 2011 x264 720p Esub NetFLix Dual Audio Hindi English GOPI SAHI

Format                         : Matroska
Format version                 : Version 4
File size                      : 838 MiB
Duration                       : 1 h 47 min
Overall bit rate               : 1 094 kb/s
Movie name                     : The Whistleblower 2011 GOPI SAHI
Encoded date                   : UTC 2020-10-10 00:49:00

Video
ID                             : 1
Format                         : AVC
Format/Info                    : Advanced Video Codec
Format profile                 : [email protected]
Format settings                : CABAC / 5 Ref Frames
Format settings, CABAC         : Yes
Format settings, Reference fra : 5 frames
Codec ID                       : V_MPEG4/ISO/AVC
Duration                       : 1 h 47 min
Bit rate                       : 899 kb/s
Width                          : 1 280 pixels
Height                         : 544 pixels
Display aspect ratio           : 2.35:1
Frame rate mode                : Constant
Frame rate                     : 25.000 FPS
Color space                    : YUV
Chroma subsampling             : 4:2:0
Bit depth                      : 8 bits
Scan type                      : Progressive
Bits/(Pixel*Frame)             : 0.052
Stream size                    : 688 MiB (82%)
Title                          : GOPI SAHI
Writing library                : x264 core 157 r2935 545de2f

Audio #1
ID                             : 2
Format                         : AAC LC
Format/Info                    : Advanced Audio Codec Low Complexity
Codec ID                       : A_AAC-2
Duration                       : 1 h 47 min
Bit rate                       : 96.0 kb/s
Channel(s)                     : 2 channels
Channel layout                 : L R
Sampling rate                  : 48.0 kHz
Frame rate                     : 46.875 FPS (1024 SPF)
Compression mode               : Lossy
Delay relative to video        : -13 ms
Stream size                    : 73.8 MiB (9%)
Title                          : GOPI SAHI
Language                       : Hindi
Default                        : Yes
Forced                         : No

Audio #2
ID                             : 3
Format                         : AAC LC
Format/Info                    : Advanced Audio Codec Low Complexity
Codec ID                       : A_AAC-2
Duration                       : 1 h 47 min
Bit rate                       : 96.0 kb/s
Channel(s)                     : 2 channels
Channel layout                 : L R
Sampling rate                  : 48.0 kHz
Frame rate                     : 46.875 FPS (1024 SPF)
Compression mode               : Lossy
Delay relative to video        : -13 ms
Stream size                    : 73.8 MiB (9%)
Title                          : GOPI SAHI
Language                       : English
Default                        : No
Forced                         : No

Text
ID                             : 4
Format                         : UTF-8
Codec ID                       : S_TEXT/UTF8
Codec ID/Info                  : UTF-8 Plain Text
Duration                       : 1 h 37 min
Bit rate                       : 50 b/s
Count of elements              : 1095
Stream size                    : 35.8 KiB (0%)
Title                          : GOPI SAHI
Language                       : English
Default                        : Yes
Forced                         : No




 MAGNET

TORRENT

MULTIUP

ANONFILES

BAYFILES

DWONLOAD AUTO START IN 20 SEC WAIT

DWONLOAD AUTO START IN 20 SEC WAIT

GDRIVE

CLOUDRU

MEDIAFIRE


DOSYA

USAUPLOAD

ONLINE 720P

ONLINE 720P 2

 

Post a Comment

0 Comments