Vertigo 1958 x264 720p Esub BluRay Dual Audio English Hindi GOPI SAHI

Vertigo (1958)

 

A former police detective juggles wrestling with his personal demons and becoming obsessed with a hauntingly beautiful woman.
EN

Director:

Alfred Hitchcock

Writers:

Alec Coppel (screenplay by), Samuel A. Taylor (screenplay by) (as Samuel Taylor) | 2 more credits »
 
8.3/10
356,551
 

Directed byAlfred Hitchcock
Produced byAlfred Hitchcock
Screenplay by
Based onD'entre les morts
by Pierre Boileau
Thomas Narcejac
Starring
Music byBernard Herrmann
CinematographyRobert Burks
Edited byGeorge Tomasini
Production
company
Alfred J. Hitchcock Productions
Distributed byParamount Pictures[N 1]
Release date
  • May 9, 1958
Running time
128 minutes
CountryUnited States
LanguageEnglish
Budget$2.5 million
Box office$7.3 million[3]

 

Vertigo 1958 x264 720p Esub BluRay Dual Audio English Hindi GOPI SAHI


Format                         : Matroska
Format version                 : Version 4
File size                      : 1 014 MiB
Duration                       : 2 h 8 min
Overall bit rate               : 1 103 kb/s
Movie name                     : Vertigo 1958 GOPI SAHI
Encoded date                   : UTC 2020-10-21 05:15:20

Video
ID                             : 1
Format                         : AVC
Format/Info                    : Advanced Video Codec
Format profile                 : [email protected]
Format settings                : CABAC / 5 Ref Frames
Format settings, CABAC         : Yes
Format settings, Reference fra : 5 frames
Codec ID                       : V_MPEG4/ISO/AVC
Duration                       : 2 h 8 min
Bit rate                       : 899 kb/s
Width                          : 1 280 pixels
Height                         : 694 pixels
Display aspect ratio           : 1.85:1
Frame rate mode                : Constant
Frame rate                     : 23.976 (24000/1001) FPS
Color space                    : YUV
Chroma subsampling             : 4:2:0
Bit depth                      : 8 bits
Scan type                      : Progressive
Bits/(Pixel*Frame)             : 0.042
Stream size                    : 826 MiB (81%)
Title                          : GOPI SAHI
Writing library                : x264 core 157 r2935 545de2f

Audio #1
ID                             : 2
Format                         : AAC LC
Format/Info                    : Advanced Audio Codec Low Complexity
Codec ID                       : A_AAC-2
Duration                       : 2 h 8 min
Bit rate                       : 96.0 kb/s
Channel(s)                     : 2 channels
Channel layout                 : L R
Sampling rate                  : 48.0 kHz
Frame rate                     : 46.875 FPS (1024 SPF)
Compression mode               : Lossy
Delay relative to video        : -42 ms
Stream size                    : 88.5 MiB (9%)
Title                          : GOPI SAHI
Language                       : English
Default                        : Yes
Forced                         : No

Audio #2
ID                             : 3
Format                         : AAC LC
Format/Info                    : Advanced Audio Codec Low Complexity
Codec ID                       : A_AAC-2
Duration                       : 2 h 8 min
Bit rate                       : 96.0 kb/s
Channel(s)                     : 2 channels
Channel layout                 : L R
Sampling rate                  : 48.0 kHz
Frame rate                     : 46.875 FPS (1024 SPF)
Compression mode               : Lossy
Delay relative to video        : 3 ms
Stream size                    : 88.3 MiB (9%)
Title                          : GOPI SAHI
Language                       : Hindi
Default                        : No
Forced                         : Yes

Text
ID                             : 4
Format                         : PGS
Muxing mode                    : zlib
Codec ID                       : S_HDMV/PGS
Codec ID/Info                  : Picture based subtitle format used on BDs/HD-DVDs
Duration                       : 2 h 4 min
Bit rate                       : 33.8 kb/s
Count of elements              : 2687
Stream size                    : 30.0 MiB (3%)
Title                          : GOPI SAHI
Language                       : English
Default                        : Yes
Forced                         : Yes

Menu
00:00:00.021                   : :Main Titles
00:03:25.017                   : :The Fallen Cop
00:05:00.279                   : :Johnny-O and Midge
00:11:20.326                   : :A Favor For a Friend
00:16:53.367                   : :Elster's Wife
00:22:14.062                   : :Among the Dead
00:25:42.562                   : :A Portrait of Carlotta
00:27:45.810                   : :The McKittrick Hotel
00:33:52.843                   : :Beautiful Carlotta, Sad Carlotta
00:38:19.735                   : :Carlotta's Blood
00:40:18.395                   : :To the Golden Gate
00:42:56.595                   : :Into the Bay
00:43:56.071                   : :Scottie's Guest
00:53:08.039                   : :Two Wanderers
00:58:23.771                   : :The Sequoias
01:02:05.368                   : :The Fragments of the Mirror
01:05:31.449                   : :The Desperate Urge
01:08:35.674                   : :Madeleine's Dream
01:12:30.701                   : :It's All Real...
01:16:00.243                   : :The Tower
01:18:17.714                   : :Things Left Undone
01:23:47.877                   : :Nightmares
01:25:26.517                   : :Melancholia
01:29:02.650                   : :Ghosts
01:31:39.181                   : :The Woman at the Empire Hotel
01:38:07.194                   : :The Living and the Dead
01:42:22.949                   : :Because I Remind You of Her...
01:45:28.802                   : :The Gentleman Know What He Wants
01:49:15.361                   : :There's Something in You...
01:52:06.199                   : :The Transformation
01:57:30.815                   : :The Necklace
01:59:29.600                   : :Back into the Past
02:02:06.090                   : :My Second Chance
02:05:58.113                   : :There's No Bringing Her Back

 



 MAGNET

TORRENT


DWONLOAD AUTO START IN 20 SEC WAIT

DWONLOAD AUTO START IN 20 SEC WAIT

GDRIVE

CLOUDRU


MEDIAFIRE

DOSYA


USAUPLOAD

ONLINE 720P