xXx 2002 x264 720p Esub BluRay Dual Audio English Hindi GOPI SAHI

xXx (2002)

 
An extreme sports athlete, Xander Cage, is recruited by the government on a special mission.
EN

Director:

Rob Cohen

Writer:

Rich Wilkes
 
5.9/10
171,912
Directed byRob Cohen
Produced byNeal H. Moritz
Written byRich Wilkes
Starring
Music byRandy Edelman
CinematographyDean Semler
Edited by
Production
company
Distributed bySony Pictures Releasing[1]
Release date
  • August 9, 2002
Running time
124 minutes[2]
CountryUnited States
LanguageEnglish
Budget$88.3 million[3]
Box office$277.4 million[4]

 

 

 


xXx 2002 GOPI SAHI


Format                         : Matroska
Format version                 : Version 4
File size                      : 978 MiB
Duration                       : 2 h 4 min
Overall bit rate               : 1 102 kb/s
Movie name                     : xXx 2002 GOPISAHI
Encoded date                   : UTC 2020-03-20 10:19:10

Video
ID                             : 1
Format                         : AVC
Format/Info                    : Advanced Video Codec
Format profile                 : [email protected]
Format settings                : CABAC / 12 Ref Frames
Format settings, CABAC         : Yes
Format settings, Reference fra : 12 frames
Codec ID                       : V_MPEG4/ISO/AVC
Duration                       : 2 h 4 min
Bit rate                       : 899 kb/s
Width                          : 1 280 pixels
Height                         : 534 pixels
Display aspect ratio           : 2.40:1
Frame rate mode                : Constant
Frame rate                     : 23.976 (24000/1001) FPS
Color space                    : YUV
Chroma subsampling             : 4:2:0
Bit depth                      : 8 bits
Scan type                      : Progressive
Bits/(Pixel*Frame)             : 0.055
Stream size                    : 798 MiB (82%)
Title                          : GOPISAHI
Writing library                : x264 core 157 r2935 545de2f

Audio #1
ID                             : 2
Format                         : AAC LC
Format/Info                    : Advanced Audio Codec Low Complexity
Codec ID                       : A_AAC-2
Duration                       : 2 h 4 min
Bit rate                       : 96.0 kb/s
Channel(s)                     : 2 channels
Channel layout                 : L R
Sampling rate                  : 48.0 kHz
Frame rate                     : 46.875 FPS (1024 SPF)
Compression mode               : Lossy
Delay relative to video        : -7 ms
Stream size                    : 85.4 MiB (9%)
Title                          : GOPISAHI
Language                       : Hindi
Default                        : Yes
Forced                         : No

Audio #2
ID                             : 3
Format                         : AAC LC
Format/Info                    : Advanced Audio Codec Low Complexity
Codec ID                       : A_AAC-2
Duration                       : 2 h 4 min
Bit rate                       : 96.0 kb/s
Channel(s)                     : 2 channels
Channel layout                 : L R
Sampling rate                  : 48.0 kHz
Frame rate                     : 46.875 FPS (1024 SPF)
Compression mode               : Lossy
Delay relative to video        : -21 ms
Stream size                    : 85.3 MiB (9%)
Title                          : GOPISAHI
Language                       : English
Default                        : No
Forced                         : No

Text #1
ID                             : 4
Format                         : VobSub
Muxing mode                    : zlib
Codec ID                       : S_VOBSUB
Codec ID/Info                  : Picture based subtitle format used on DVDs
Duration                       : 1 h 36 min
Bit rate                       : 7 745 b/s
Count of elements              : 1122
Stream size                    : 5.33 MiB (1%)
Title                          : GOPISAHI
Language                       : English
Default                        : No
Forced                         : No

Text #2
ID                             : 5
Format                         : VobSub
Muxing mode                    : zlib
Codec ID                       : S_VOBSUB
Codec ID/Info                  : Picture based subtitle format used on DVDs
Duration                       : 1 h 38 min
Bit rate                       : 9 197 b/s
Count of elements              : 1392
Stream size                    : 6.51 MiB (1%)
Title                          : GOPISAHI
Language                       : English
Default                        : No
Forced                         : No




 

Post a Comment

0 Comments