A Call To Spy 2019 x264 720p Esub AmaZoNe Dual Audio English Hindi GOPI SAHI

A Call to Spy (2019)

 
 
In the beginning of WWII, with Britain becoming desperate, Churchill orders his new spy agency - SOE - to recruit and train women as spies.
EN

Director:

Lydia Dean Pilcher
 
6.2/10
898
Directed byLydia Dean Pilcher
Produced bySarah Megan Thomas
Written bySarah Megan Thomas
Starring
Music byLillie Rebecca McDonough
Cinematography
  • Robby Baumgartner
  • Miles Goodall
Edited byPaul Tothill
Distributed byIFC Films
Release date
  • June 21, 2019 (Edinburgh)
  • October 2, 2020 (United States)
Running time
124 minutes[1]
CountryUnited States
LanguageEnglish
Box office$174,430[2][3]

 

 

\A Call To Spy 2019 x264 720p Esub AmaZoNe Dual Audio English Hindi GOPI SAHI


Format                         : Matroska
Format version                 : Version 4
File size                      : 973 MiB
Duration                       : 2 h 4 min
Overall bit rate               : 1 094 kb/s
Movie name                     : A Call To Spy 2019 GOPI SAHI
Encoded date                   : UTC 2020-12-12 12:56:25

Video
ID                             : 1
Format                         : AVC
Format/Info                    : Advanced Video Codec
Format profile                 : [email protected]
Format settings                : CABAC / 5 Ref Frames
Format settings, CABAC         : Yes
Format settings, Reference fra : 5 frames
Codec ID                       : V_MPEG4/ISO/AVC
Duration                       : 2 h 4 min
Bit rate                       : 899 kb/s
Width                          : 1 280 pixels
Height                         : 682 pixels
Display aspect ratio           : 1.85:1
Frame rate mode                : Constant
Frame rate                     : 23.976 (24000/1001) FPS
Color space                    : YUV
Chroma subsampling             : 4:2:0
Bit depth                      : 8 bits
Scan type                      : Progressive
Bits/(Pixel*Frame)             : 0.043
Stream size                    : 799 MiB (82%)
Title                          : GOPI SAHI
Writing library                : x264 core 157 r2935 545de2f

Audio #1
ID                             : 2
Format                         : AAC LC
Format/Info                    : Advanced Audio Codec Low Complexity
Codec ID                       : A_AAC-2
Duration                       : 2 h 4 min
Bit rate                       : 96.0 kb/s
Channel(s)                     : 2 channels
Channel layout                 : L R
Sampling rate                  : 48.0 kHz
Frame rate                     : 46.875 FPS (1024 SPF)
Compression mode               : Lossy
Delay relative to video        : -41 ms
Stream size                    : 85.7 MiB (9%)
Title                          : GOPI SAHI
Language                       : Hindi
Default                        : Yes
Forced                         : No

Audio #2
ID                             : 3
Format                         : AAC LC
Format/Info                    : Advanced Audio Codec Low Complexity
Codec ID                       : A_AAC-2
Duration                       : 2 h 4 min
Bit rate                       : 96.0 kb/s
Channel(s)                     : 2 channels
Channel layout                 : L R
Sampling rate                  : 48.0 kHz
Frame rate                     : 46.875 FPS (1024 SPF)
Compression mode               : Lossy
Delay relative to video        : -64 ms
Stream size                    : 85.6 MiB (9%)
Title                          : GOPI SAHI
Language                       : English
Default                        : No
Forced                         : No

Text
ID                             : 4
Format                         : UTF-8
Codec ID                       : S_TEXT/UTF8
Codec ID/Info                  : UTF-8 Plain Text
Duration                       : 1 h 43 min
Bit rate                       : 5 b/s
Count of elements              : 133
Stream size                    : 4.11 KiB (0%)
Title                          : GOPI SAHI
Language                       : English
Default                        : Yes
Forced                         : No

Menu
00:00:00.043                   : :Chapter 1
00:00:23.275                   : :Chapter 2
00:00:58.184                   : :Chapter 3
00:01:25.170                   : :Chapter 4
00:02:55.135                   : :Chapter 5
00:03:02.183                   : :Chapter 6
00:10:38.264                   : :Chapter 7
00:17:42.187                   : :Chapter 8
00:24:42.315                   : :Chapter 9
00:31:53.121                   : :Chapter 10
00:39:53.309                   : :Chapter 11
00:49:49.404                   : :Chapter 12
00:59:50.213                   : :Chapter 13
01:04:50.138                   : :Chapter 14
01:12:36.103                   : :Chapter 15
01:17:40.282                   : :Chapter 16
01:24:40.201                   : :Chapter 17
01:39:18.329                   : :Chapter 18
01:40:27.231                   : :Chapter 19
01:58:13.171                   : :Chapter 20
01:59:32.333                   : :Chapter 21


 

MAGNET

TORRENT

GDRIVE FILE COPY

DWONLOAD AUTO START IN 20 SEC

ONLINE 720P

MULTIUP