Aatish Feel The Fire 1994 x264 720p Esub AmaZoNe Hindi GOPI SAHI

Aatish: Feel the Fire (1994)

 
 
Two brothers namely the eldest Baba and the younger one Avinash live in a small apartment in a Bombay city slum. Another orphan named Nawab reside there with them along with there widowed ... See full summary »
EN

Director:

Sanjay Gupta

Writers:

Robin Bhatt (screenplay), Robin Bhatt (story) | 3 more credits »
 
5.8/10 

 

Directed bySanjay Gupta
Produced byG. P. Sippy, Vijay Sippy
Written byKamlesh Pandey (dialogue)
Story byRobin Bhatt
Sujit Sen
Based on
StarringSanjay Dutt
Aditya Pancholi
Raveena Tandon
Karishma Kapoor
Atul Agnihotri
Music byNadeem-Shravan
CinematographyNajeeb Khan
Edited byAfaq Hussain
Distributed bySippy Films
Release date
  • 17 June 1994
Running time
155 Minutes
CountryIndia
LanguageHindi
Budget30 million[1] ($1 million)[a]
Box office₹123 million[1] ($4 million)[a]

 

 Format                         : Matroska
Format version                 : Version 4
File size                      : 1.04 GiB
Duration                       : 2 h 29 min
Overall bit rate               : 998 kb/s
Movie name                     : Aatish Feel The Fire 1994 GOPI SAHI
Encoded date                   : UTC 2020-11-30 02:05:37

Video
ID                             : 1
Format                         : AVC
Format/Info                    : Advanced Video Codec
Format profile                 : [email protected]
Format settings                : CABAC / 5 Ref Frames
Format settings, CABAC         : Yes
Format settings, Reference fra : 5 frames
Codec ID                       : V_MPEG4/ISO/AVC
Duration                       : 2 h 29 min
Bit rate                       : 899 kb/s
Width                          : 1 280 pixels
Height                         : 546 pixels
Display aspect ratio           : 2.35:1
Frame rate mode                : Constant
Frame rate                     : 25.000 FPS
Color space                    : YUV
Chroma subsampling             : 4:2:0
Bit depth                      : 8 bits
Scan type                      : Progressive
Bits/(Pixel*Frame)             : 0.051
Stream size                    : 962 MiB (90%)
Title                          : GOPI SAHI
Writing library                : x264 core 157 r2935 545de2f

Audio
ID                             : 2
Format                         : AAC LC
Format/Info                    : Advanced Audio Codec Low Complexity
Codec ID                       : A_AAC-2
Duration                       : 2 h 29 min
Bit rate                       : 96.0 kb/s
Channel(s)                     : 2 channels
Channel layout                 : L R
Sampling rate                  : 48.0 kHz
Frame rate                     : 46.875 FPS (1024 SPF)
Compression mode               : Lossy
Delay relative to video        : -21 ms
Stream size                    : 103 MiB (10%)
Title                          : GOPI SAHI
Language                       : Hindi
Default                        : Yes
Forced                         : No

Text
Language                       : English

 


 

TORRENT

 MAGNET

MULTIUP

 DWONLOAD AUTO START IN 20 SEC

GOOGLE DRIVE FILE COPY

ONLINE