AK vs AK 2020 x264 720p Esub NetFLix Hindi GOPI SAHI

 

AK vs AK (2020)

TV-MA | | Comedy, Crime, Drama | 24 December 2020 (USA)
 
 
 
A filmmaker kidnaps the daughter of a movie star, and while the star searches for his daughter the director films the desperate search in real time for his next blockbuster movie.
EN

Writers:

Avinash Sampath (screenplay), Avinash Sampath (story)
 
7.3/10

2,208

 

 

 AK vs AK 2020 x264 720p Esub NetFLix Hindi GOPI SAHI

Format                         : Matroska
Format version                 : Version 4
File size                      : 772 MiB
Duration                       : 1 h 49 min
Overall bit rate               : 990 kb/s
Movie name                     : AK vs AK 2020 GOPI SAHI
Encoded date                   : UTC 2020-12-26 02:55:41

Video
ID                             : 1
Format                         : AVC
Format/Info                    : Advanced Video Codec
Format profile                 : [email protected]
Format settings                : CABAC / 5 Ref Frames
Format settings, CABAC         : Yes
Format settings, Reference fra : 5 frames
Codec ID                       : V_MPEG4/ISO/AVC
Duration                       : 1 h 48 min
Bit rate                       : 899 kb/s
Width                          : 1 280 pixels
Height                         : 720 pixels
Display aspect ratio           : 16:9
Frame rate mode                : Constant
Frame rate                     : 24.000 FPS
Color space                    : YUV
Chroma subsampling             : 4:2:0
Bit depth                      : 8 bits
Scan type                      : Progressive
Bits/(Pixel*Frame)             : 0.041
Stream size                    : 696 MiB (90%)
Title                          : GOPI SAHI
Writing library                : x264 core 157 r2935 545de2f

Audio
Format                         : AAC LC
Duration                       : 1 h 49 min
Bit rate                       : 96.0 kb/s
Channel(s)                     : 2 channels
Channel layout                 : L R
Sampling rate                  : 48.0 kHz
Frame rate                     : 46.875 FPS (1024 SPF)
Compression mode               : Lossy
Delay relative to video        : -21 ms
Stream size                    : 74.7 MiB (10%)
Title                          : GOPI SAHI
Language                       : Hindi

Text
Language                       : English


 

MAGNET

TORRENT


GDRIVE FILE COPY

DWONLOAD AUTO START IN 20 SEC

ONLINE 720P

MULTIUP