Black and Blue 2019 x264 720p Esub BluRay Dual Audio English Hindi THE GOPI SAHI

 

Black and Blue (2019)

 


A rookie New Orleans police officer is forced to balance her identity as a black woman after she witnesses two corrupt cops committing murder.
EN

Director:

Deon Taylor
 
 
6.4/10
16,909
 
 
Directed byDeon Taylor
Produced by
  • Sean Sorensen
Written byPeter A. Dowling
Starring
Music byGeoff Zanelli
CinematographyDante Spinotti
Edited byPeck Prior
Production
companies
  • Screen Gems
  • Royal Viking Entertainment
  • Hidden Empire Film Group
Distributed bySony Pictures Releasing
Release date
  • September 21, 2019 (Urbanworld)
  • October 25, 2019 (United States)
Running time
108 minutes
CountryUnited States
LanguageEnglish
Budget$12 million[1]
Box office$22.7 million[1][2]
 
 
Black and Blue 2019 x264 720p Esub BluRay Dual Audio English Hindi THE GOPI SAHI

Format                         : Matroska
Format version                 : Version 4
File size                      : 872 MiB
Duration                       : 1 h 47 min
Overall bit rate               : 1 129 kb/s
Movie name                     : Black and Blue 2019 GOPISAHI
Encoded date                   : UTC 2020-03-25 06:53:22
Writing application            : mkvmerge v44.0.0 ('Domino') 64-bit
Writing library                : libebml v1.3.10 + libmatroska v1.5.2

Video
ID                             : 1
Format                         : AVC
Format/Info                    : Advanced Video Codec
Format profile                 : [email protected]
Format settings                : CABAC / 12 Ref Frames
Format settings, CABAC         : Yes
Format settings, Reference fra : 12 frames
Codec ID                       : V_MPEG4/ISO/AVC
Duration                       : 1 h 47 min
Bit rate                       : 899 kb/s
Width                          : 1 280 pixels
Height                         : 536 pixels
Display aspect ratio           : 2.40:1
Frame rate mode                : Constant
Frame rate                     : 23.976 (24000/1001) FPS
Color space                    : YUV
Chroma subsampling             : 4:2:0
Bit depth                      : 8 bits
Scan type                      : Progressive
Bits/(Pixel*Frame)             : 0.055
Stream size                    : 694 MiB (80%)
Title                          : GOPISAHI
Writing library                : x264 core 157 r2935 545de2f

Audio #1
ID                             : 2
Format                         : AAC LC
Format/Info                    : Advanced Audio Codec Low Complexity
Codec ID                       : A_AAC-2
Duration                       : 1 h 47 min
Bit rate                       : 96.0 kb/s
Channel(s)                     : 2 channels
Channel layout                 : L R
Sampling rate                  : 48.0 kHz
Frame rate                     : 46.875 FPS (1024 SPF)
Compression mode               : Lossy
Delay relative to video        : 1 s 12 ms
Stream size                    : 74.4 MiB (9%)
Title                          : GOPISAHI
Language                       : Hindi
Default                        : Yes
Forced                         : No

Audio #2
ID                             : 3
Format                         : AAC LC
Format/Info                    : Advanced Audio Codec Low Complexity
Codec ID                       : A_AAC-2
Duration                       : 1 h 47 min
Bit rate                       : 96.0 kb/s
Channel(s)                     : 2 channels
Channel layout                 : L R
Sampling rate                  : 48.0 kHz
Frame rate                     : 46.875 FPS (1024 SPF)
Compression mode               : Lossy
Delay relative to video        : -21 ms
Stream size                    : 74.5 MiB (9%)
Title                          : GOPISAHI
Language                       : English
Default                        : No
Forced                         : No

Text #1
ID                             : 4
Format                         : PGS
Muxing mode                    : zlib
Codec ID                       : S_HDMV/PGS
Codec ID/Info                  : Picture based subtitle format used on BDs/HD-DVDs
Duration                       : 1 h 43 min
Bit rate                       : 31.3 kb/s
Count of elements              : 2490
Stream size                    : 23.1 MiB (3%)
Title                          : GOPISAHI
Language                       : English
Default                        : Yes
Forced                         : Yes

Text #2
ID                             : 5
Format                         : PGS
Muxing mode                    : zlib
Codec ID                       : S_HDMV/PGS
Codec ID/Info                  : Picture based subtitle format used on BDs/HD-DVDs
Duration                       : 1 h 45 min
Bit rate                       : 37.1 kb/s
Count of elements              : 2941
Stream size                    : 28.0 MiB (3%)
Title                          : GOPISAHI
Language                       : English
Default                        : No
Forced                         : No

Menu
00:00:00.000                   : :Chapter 01
00:05:26.284                   : :Chapter 02
00:10:36.886                   : :Chapter 03
00:16:38.581                   : :Chapter 04
00:23:32.995                   : :Chapter 05
00:30:25.532                   : :Chapter 06
00:39:08.888                   : :Chapter 07
00:47:23.674                   : :Chapter 08
00:55:04.176                   : :Chapter 09
01:01:54.544                   : :Chapter 10
01:09:42.595                   : :Chapter 11
01:17:41.782                   : :Chapter 12
01:21:47.152                   : :Chapter 13
01:24:41.368                   : :Chapter 14
01:30:23.710                   : :Chapter 15
01:40:20.973                   : :Chapter 16




 MAGNET

TORRENT

TORRENT 2 ZIP FILE

GDRIVE FILE COPY

DWONLOAD AUTO START IN 20 SEC ZIP FILE


DOSYA

DOBOX LINK = PASSWORD = nv59

MULTIUP

MEDIAFIRE


ONLINE 720P

 

Post a Comment

0 Comments