Ninnila Ninnila 2021 x264 720p WebHD Hindi THE GOPI SAHI

 

Ninnila Ninnila (2021)

 

 

In London, Dev, an overweight, genius chef who suffers with muscle spasms, meets Tara and love blossoms, but things take an interesting turn when he crosses paths with Maya.
EN

Director:

Ani. I.V. Sasi

Writers:

Ani. I.V. Sasi, Naga Chandu (dialogue) | 3 more credits »
 
 
8.6/10
32



 Ninnila Ninnila 2021 x264 720p WebHD Hindi THE GOPI SAHI

Format                         : Matroska
Format version                 : Version 4
File size                      : 845 MiB
Duration                       : 1 h 58 min
Overall bit rate               : 997 kb/s
Movie name                     : Ninnila Ninnila 2021 GOPI SAHI

Video
ID                             : 1
Format                         : AVC
Format/Info                    : Advanced Video Codec
Format profile                 : [email protected]
Format settings                : CABAC / 5 Ref Frames
Format settings, CABAC         : Yes
Format settings, Reference fra : 5 frames
Codec ID                       : V_MPEG4/ISO/AVC
Duration                       : 1 h 58 min
Bit rate                       : 899 kb/s
Width                          : 1 280 pixels
Height                         : 674 pixels
Display aspect ratio           : 1.899
Frame rate mode                : Constant
Frame rate                     : 25.000 FPS
Color space                    : YUV
Chroma subsampling             : 4:2:0
Bit depth                      : 8 bits
Scan type                      : Progressive
Bits/(Pixel*Frame)             : 0.042
Stream size                    : 761 MiB (90%)
Title                          : GOPI SAHI
Writing library                : x264 core 157 r2935 545de2f

Audio
ID                             : 2
Format                         : AAC LC
Format/Info                    : Advanced Audio Codec Low Complexity
Codec ID                       : A_AAC-2
Duration                       : 1 h 58 min
Bit rate                       : 96.0 kb/s
Channel(s)                     : 2 channels
Channel layout                 : L R
Sampling rate                  : 48.0 kHz
Frame rate                     : 46.875 FPS (1024 SPF)
Compression mode               : Lossy
Delay relative to video        : -21 ms
Stream size                    : 81.6 MiB (10%)
Title                          : GOPI SAHI
Language                       : Hindi
Default                        : Yes
Forced                         : No




 MAGNET

TORRENT

TORRENT 2 ZIP FILE

GDRIVE FILE COPY

DWONLOAD AUTO START IN 20 SEC ZIP FILE

DOSYA


DOBOX LINK = PASSWORD = s1ca

MULTIUP

MEDIAFIRE

ONLINE 720P

 

Post a Comment

0 Comments