Indoo Ki Jawani 2020 x264 720p WebHD Esub Hindi THE GOPI SAHI

 

Indoo Ki Jawani (2020)

 

A coming-of-age story of a girl who experience life through misadventures & dating apps.
EN

Director:

Abir Sengupta

Writer:

Abir Sengupta
 
1.5/10
3,532
Directed byAbir Sengupta
Produced byBhushan Kumar
Divya Khosla Kumar
Krishan Kumar
Nikkhil Advani
Monisha Advani
Madhu Bhojwani
Niranjan Iyengar
Ryan Stephen
Written byAbir Sengupta
StarringKiara Advani
Aditya Seal
Mallika Dua
Music byScore:
Neel Adhikari
Songs:
Rochak Kohli
Mika Singh
Badass Neeti Mohan
CinematographyA. Vasanth
Edited byAjay Sharma
Production
companies
Distributed byAA Films
Release date
  • 11 December 2020[1]
Running time
118 minutes
CountryIndia
LanguageHindi
Box office₹2.34 crore


 Indoo Ki Jawani 2020 x264 720p WebHD Esub Hindi THE GOPI SAHI

Format                         : Matroska
Format version                 : Version 4
File size                      : 821 MiB
Duration                       : 1 h 54 min
Overall bit rate               : 998 kb/s
Movie name                     : Indoo Ki Jawani 2020 GOPI SAHI
Encoded date                   : UTC 2021-03-02 14:17:10
Writing application            : mkvmerge v52.0.0 ('Secret For The Mad') 64-bit
Writing library                : libebml v1.4.1 + libmatroska v1.6.2

Video
ID                             : 6
Format                         : AVC
Format/Info                    : Advanced Video Codec
Format profile                 : [email protected]
Format settings                : CABAC / 5 Ref Frames
Format settings, CABAC         : Yes
Format settings, Reference fra : 5 frames
Codec ID                       : V_MPEG4/ISO/AVC
Duration                       : 1 h 54 min
Bit rate                       : 899 kb/s
Width                          : 1 280 pixels
Height                         : 544 pixels
Display aspect ratio           : 2.35:1
Frame rate mode                : Constant
Frame rate                     : 24.000 FPS
Color space                    : YUV
Chroma subsampling             : 4:2:0
Bit depth                      : 8 bits
Scan type                      : Progressive
Bits/(Pixel*Frame)             : 0.054
Stream size                    : 739 MiB (90%)
Title                          : GOPI SAHI
Writing library                : x264 core 157 r2935 545de2f

Audio
ID                             : 7
Format                         : AAC LC
Format/Info                    : Advanced Audio Codec Low Complexity
Codec ID                       : A_AAC-2
Duration                       : 1 h 54 min
Bit rate                       : 96.0 kb/s
Channel(s)                     : 2 channels
Channel layout                 : L R
Sampling rate                  : 48.0 kHz
Frame rate                     : 46.875 FPS (1024 SPF)
Compression mode               : Lossy
Delay relative to video        : -21 ms
Stream size                    : 79.4 MiB (10%)
Title                          : GOPI SAHI
Language                       : Hindi
Default                        : Yes
Forced                         : No

Subtitle: UTF-8 [S: GOPI SAHI [eng] (subrip) [default]]
Subtitle: UTF-8 [S: GOPI SAHI [hin] (subrip)]
Subtitle: UTF-8 [S: GOPI SAHI [ara] (subrip)]
Subtitle: UTF-8 [S: Chinese Simplified GOPI SAHI [chi] (subrip)]
Subtitle: UTF-8 [S: Chinese Traditional GOPI SAHI [chi] (subrip)]
Subtitle: UTF-8 [S: No subtitles]

 



 

 MAGNET

TORRENT

TORRENT 2 ZIP FILE

GDRIVE FILE COPY


DWONLOAD AUTO START IN 20 SEC ZIP FILE

DOSYA

DOWNLOAD AND ONLINE DOBOX LINK
= PASSWORD = c9ge

MULTIUP

MEDIAFIRE

ONLINE 720P

 

Post a Comment

0 Comments