Koi Sath Hai 2021 x264 720p WebHD Hindi THE GOPI SAHI

 

Koi Sath Hai (2021)

 
 
Koi Sath Hai is the story of four friends played by Neet Mahal, Rajesh Dubeay, Priya Tiwari and Asma Sayad who visit an isolated bungalow and plan to call spirits. Things change when their ... See full summary »
EN

Director:

Mahaveer Shringi
 
5.0/10
9


Koi Sath Hai 2021 x264 720p WebHD Hindi THE GOPI SAHI


Format                         : Matroska
Format version                 : Version 4
File size                      : 810 MiB
Duration                       : 1 h 53 min
Overall bit rate               : 997 kb/s
Movie name                     : Koi Sath Hai 2021 GOPI SAHI
Encoded date                   : UTC 2021-03-15 08:13:30

Video
ID                             : 1
Format                         : AVC
Format/Info                    : Advanced Video Codec
Format profile                 : [email protected]
Format settings                : CABAC / 5 Ref Frames
Format settings, CABAC         : Yes
Format settings, Reference fra : 5 frames
Codec ID                       : V_MPEG4/ISO/AVC
Duration                       : 1 h 53 min
Bit rate                       : 899 kb/s
Width                          : 1 280 pixels
Height                         : 560 pixels
Display aspect ratio           : 2.25:1
Frame rate mode                : Constant
Frame rate                     : 24.000 FPS
Color space                    : YUV
Chroma subsampling             : 4:2:0
Bit depth                      : 8 bits
Scan type                      : Progressive
Bits/(Pixel*Frame)             : 0.052
Stream size                    : 731 MiB (90%)
Title                          : GOPI SAHI
Writing library                : x264 core 157 r2935 545de2f

Audio
ID                             : 2
Format                         : AAC LC
Format/Info                    : Advanced Audio Codec Low Complexity
Codec ID                       : A_AAC-2
Duration                       : 1 h 53 min
Bit rate                       : 96.0 kb/s
Channel(s)                     : 2 channels
Channel layout                 : L R
Sampling rate                  : 48.0 kHz
Frame rate                     : 46.875 FPS (1024 SPF)
Compression mode               : Lossy
Delay relative to video        : -21 ms
Stream size                    : 77.9 MiB (10%)
Title                          : GOPI SAHI
Language                       : Hindi
Default                        : Yes
Forced                         : No




 MAGNET

TORRENT

TORRENT 2 ZIP FILE

GDRIVE FILE COPY

DWONLOAD AUTO START IN 20 SEC ZIP FILE

DOSYA

DOWNLOAD AND ONLINE DOBOX LINK = PASSWORD =  t7g2


MULTIUP

MEDIAFIRE

ONLINE 720P

 

Post a Comment

0 Comments