Little 2019 x264 720p Esub BluRay Dual Audio English Hindi THE GOPI SAHI

Little (2019)

PG-13 | | Comedy, Fantasy, Romance | 12 April 2019 (USA)
 
 
A woman is transformed into her younger self at a point in her life when the pressures of adulthood become too much to bear.
EN

Directors:

Tina Gordon (as Tina Gordon Chism), Tina Gordon

Writers:

Tracy Oliver (screenplay), Tina Gordon (screenplay) | 1 more credit »
 
 
5.5/10
11,370
 
Directed byTina Gordon
Produced by
Screenplay by
Story byTracy Oliver
Starring
Music byGermaine Franco
CinematographyGreg Gardiner
Edited byDavid Moritz
Production
companies
Distributed byUniversal Pictures[1]
Release date
  • April 12, 2019 (United States)
Running time
109 minutes[2]
CountryUnited States
LanguageEnglish
Budget$20 million[2]
Box office$49 million[2]

 


 Little 2019 x264 720p Esub BluRay Dual Audio English Hindi THE GOPI SAHI

Format                         : Matroska
Format version                 : Version 4
File size                      : 852 MiB
Duration                       : 1 h 48 min
Overall bit rate               : 1 094 kb/s
Movie name                     : Little 2019 GOPI SAHI
Encoded date                   : UTC 2021-03-28 03:25:15

Video
ID                             : 1
Format                         : AVC
Format/Info                    : Advanced Video Codec
Format profile                 : [email protected]
Format settings                : CABAC / 5 Ref Frames
Format settings, CABAC         : Yes
Format settings, Reference fra : 5 frames
Codec ID                       : V_MPEG4/ISO/AVC
Duration                       : 1 h 48 min
Bit rate                       : 899 kb/s
Width                          : 1 280 pixels
Height                         : 692 pixels
Display aspect ratio           : 1.85:1
Frame rate mode                : Constant
Frame rate                     : 23.976 (24000/1001) FPS
Color space                    : YUV
Chroma subsampling             : 4:2:0
Bit depth                      : 8 bits
Scan type                      : Progressive
Bits/(Pixel*Frame)             : 0.042
Stream size                    : 699 MiB (82%)
Title                          : GOPI SAHI
Writing library                : x264 core 157 r2935 545de2f

Audio #1
ID                             : 2
Format                         : AAC LC
Format/Info                    : Advanced Audio Codec Low Complexity
Codec ID                       : A_AAC-2
Duration                       : 1 h 48 min
Bit rate                       : 96.0 kb/s
Channel(s)                     : 2 channels
Channel layout                 : L R
Sampling rate                  : 48.0 kHz
Frame rate                     : 46.875 FPS (1024 SPF)
Compression mode               : Lossy
Delay relative to video        : -21 ms
Stream size                    : 74.9 MiB (9%)
Title                          : GOPI SAHI
Language                       : Hindi
Default                        : Yes
Forced                         : No

Audio #2
ID                             : 3
Format                         : AAC LC
Format/Info                    : Advanced Audio Codec Low Complexity
Codec ID                       : A_AAC-2
Duration                       : 1 h 48 min
Bit rate                       : 96.0 kb/s
Channel(s)                     : 2 channels
Channel layout                 : L R
Sampling rate                  : 48.0 kHz
Frame rate                     : 46.875 FPS (1024 SPF)
Compression mode               : Lossy
Delay relative to video        : -21 ms
Stream size                    : 75.0 MiB (9%)
Title                          : GOPI SAHI
Language                       : English
Default                        : No
Forced                         : No

Text
Language                       : English




MAGNET

TORRENT


TORRENT 2 ZIP FILE

GDRIVE FILE COPY

DWONLOAD AUTO START IN 20 SEC ZIP FILE

DOWNLOAD AND ONLINE DOBOX LINK = PASSWORD = wj68

MULTIUP


MEDIAFIRE

ONLINE 720P

 

Post a Comment

0 Comments