Mary Magdalene 2018 x264 720p WebHD Esub Dual Audio English Hindi THE GOPI SAHI

 

Mary Magdalene (2018)

 
 
Twelve men heard and spread the message of Jesus. Only one woman understood it.
EN

Director:

Garth Davis
 
5.9/10

8,731

Directed byGarth Davis
Produced by
Written by
Starring
Music by
CinematographyGreig Fraser
Edited by
Production
companies
Distributed by
Release date
  • February 26, 2018 (National Gallery)
  • March 16, 2018 (United Kingdom)
  • March 22, 2018 (Australia)
  • April 12, 2019 (United States)
Running time
120 minutes[3][4]
Countries
  • United States[5]
  • United Kingdom[5]
  • Australia[5]
LanguageEnglish
Box office$11.7 million[6]

 


Mary Magdalene 2019 x264 720p WebHD Esub Dual Audio English Hindi THE GOPI SAHI


Format                         : Matroska
Format version                 : Version 4
File size                      : 939 MiB
Duration                       : 1 h 59 min
Overall bit rate               : 1 095 kb/s
Movie name                     : Mary Magdalene 2019 GOPI SAHI
Encoded date                   : UTC 2021-03-30 07:57:16

Video
ID                             : 1
Format                         : AVC
Format/Info                    : Advanced Video Codec
Format profile                 : [email protected]
Format settings                : CABAC / 5 Ref Frames
Format settings, CABAC         : Yes
Format settings, Reference fra : 5 frames
Codec ID                       : V_MPEG4/ISO/AVC
Duration                       : 1 h 59 min
Bit rate                       : 899 kb/s
Width                          : 1 280 pixels
Height                         : 582 pixels
Display aspect ratio           : 2.2:1
Frame rate mode                : Constant
Frame rate                     : 23.976 (24000/1001) FPS
Color space                    : YUV
Chroma subsampling             : 4:2:0
Bit depth                      : 8 bits
Scan type                      : Progressive
Bits/(Pixel*Frame)             : 0.050
Stream size                    : 771 MiB (82%)
Title                          : GOPI SAHI
Writing library                : x264 core 157 r2935 545de2f

Audio #1
ID                             : 2
Format                         : AAC LC
Format/Info                    : Advanced Audio Codec Low Complexity
Codec ID                       : A_AAC-2
Duration                       : 1 h 59 min
Bit rate                       : 96.0 kb/s
Channel(s)                     : 2 channels
Channel layout                 : L R
Sampling rate                  : 48.0 kHz
Frame rate                     : 46.875 FPS (1024 SPF)
Compression mode               : Lossy
Delay relative to video        : -21 ms
Stream size                    : 82.6 MiB (9%)
Title                          : GOPI SAHI
Language                       : Hindi
Default                        : Yes
Forced                         : No

Audio #2
ID                             : 3
Format                         : AAC LC
Format/Info                    : Advanced Audio Codec Low Complexity
Codec ID                       : A_AAC-2
Duration                       : 1 h 59 min
Bit rate                       : 96.0 kb/s
Channel(s)                     : 2 channels
Channel layout                 : L R
Sampling rate                  : 48.0 kHz
Frame rate                     : 46.875 FPS (1024 SPF)
Compression mode               : Lossy
Delay relative to video        : -21 ms
Stream size                    : 82.7 MiB (9%)
Title                          : GOPI SAHI
Language                       : English
Default                        : No
Forced                         : No

Tex)
Language                       : English




MAGNET

TORRENT

TORRENT 2 ZIP FILE


GDRIVE FILE COPY

DWONLOAD AUTO START IN 20 SEC ZIP FILE

DOWNLOAD AND ONLINE DOBOX LINK = PASSWORD = cqme

MULTIUP

MEDIAFIRE

ONLINE 720P

 

Post a Comment

0 Comments