Monster Hunter 2020 x264 720p Esub BluRay English Hindi Telugu Tamil THE GOPI SAHI

Monster Hunter (2020)

 
When Lt. Artemis and her loyal soldiers are transported to a new world, they engage in a desperate battle for survival against enormous enemies with incredible powers. Feature film based on the video game by Capcom.
EN

Director:

Paul W.S. Anderson

Writers:

Paul W.S. Anderson, Kaname Fujioka (video game series)
 
5.3/10
27,407
Directed byPaul W. S. Anderson
Produced by
Written byPaul W. S. Anderson
Based onMonster Hunter
by Capcom
Starring
Music byPaul Haslinger
CinematographyGlen MacPherson
Edited byDoobie White
Production
companies
Distributed by
Release date
  • December 3, 2020 (Netherlands)[2]
  • December 4, 2020 (China)
  • December 18, 2020 (United States)
  • March 26, 2021 (Japan)
Running time
103 minutes
Countries
LanguageEnglish
Budget$60 million[3]
Box office$31.7 million[4]

 

 


 Monster Hunter 2020 x264 720p Esub BluRay English Hindi Telugu Tamil THE GOPI SAHI

Format                         : Matroska
Format version                 : Version 4
File size                      : 947 MiB
Duration                       : 1 h 43 min
Overall bit rate               : 1 283 kb/s
Movie name                     : Monster Hunter 2020 GOPI SAHI
Encoded date                   : UTC 2021-03-25 17:08:37

Video
ID                             : 1
Format                         : AVC
Format/Info                    : Advanced Video Codec
Format profile                 : [email protected]
Format settings                : CABAC / 5 Ref Frames
Format settings, CABAC         : Yes
Format settings, Reference fra : 5 frames
Codec ID                       : V_MPEG4/ISO/AVC
Duration                       : 1 h 43 min
Bit rate                       : 899 kb/s
Width                          : 1 280 pixels
Height                         : 536 pixels
Display aspect ratio           : 2.40:1
Frame rate mode                : Constant
Frame rate                     : 23.976 (24000/1001) FPS
Color space                    : YUV
Chroma subsampling             : 4:2:0
Bit depth                      : 8 bits
Scan type                      : Progressive
Bits/(Pixel*Frame)             : 0.055
Stream size                    : 662 MiB (70%)
Title                          : GOPI SAHI
Writing library                : x264 core 157 r2935 545de2f

Audio #1
ID                             : 2
Format                         : AAC LC
Format/Info                    : Advanced Audio Codec Low Complexity
Codec ID                       : A_AAC-2
Duration                       : 1 h 43 min
Bit rate                       : 96.0 kb/s
Channel(s)                     : 2 channels
Channel layout                 : L R
Sampling rate                  : 48.0 kHz
Frame rate                     : 46.875 FPS (1024 SPF)
Compression mode               : Lossy
Delay relative to video        : -21 ms
Stream size                    : 71.0 MiB (8%)
Title                          : GOPI SAHI
Language                       : English
Default                        : Yes
Forced                         : No

Audio #2
ID                             : 4
Format                         : AAC LC
Format/Info                    : Advanced Audio Codec Low Complexity
Codec ID                       : A_AAC-2
Duration                       : 1 h 43 min
Bit rate                       : 96.0 kb/s
Channel(s)                     : 2 channels
Channel layout                 : L R
Sampling rate                  : 48.0 kHz
Frame rate                     : 46.875 FPS (1024 SPF)
Compression mode               : Lossy
Delay relative to video        : -19 ms
Stream size                    : 70.0 MiB (7%)
Title                          : GOPI SAHI
Language                       : Hindi
Default                        : No
Forced                         : No

Audio #3
ID                             : 5
Format                         : AAC LC
Format/Info                    : Advanced Audio Codec Low Complexity
Codec ID                       : A_AAC-2
Duration                       : 1 h 43 min
Bit rate                       : 96.0 kb/s
Channel(s)                     : 2 channels
Channel layout                 : L R
Sampling rate                  : 48.0 kHz
Frame rate                     : 46.875 FPS (1024 SPF)
Compression mode               : Lossy
Delay relative to video        : -19 ms
Stream size                    : 70.0 MiB (7%)
Title                          : GOPI SAHI
Language                       : Tamil
Default                        : No
Forced                         : No

Audio #4
ID                             : 6
Format                         : AAC LC
Format/Info                    : Advanced Audio Codec Low Complexity
Codec ID                       : A_AAC-2
Duration                       : 1 h 43 min
Bit rate                       : 96.0 kb/s
Channel(s)                     : 2 channels
Channel layout                 : L R
Sampling rate                  : 48.0 kHz
Frame rate                     : 46.875 FPS (1024 SPF)
Compression mode               : Lossy
Delay relative to video        : -19 ms
Stream size                    : 70.2 MiB (7%)
Title                          : GOPI SAHI
Language                       : Telugu
Default                        : No
Forced                         : No

Text
Language                       : English



 

MAGNET

TORRENT

TORRENT 2 ZIP FILE

GDRIVE FILE COPY

DWONLOAD AUTO START IN 20 SEC ZIP FILE

DOSYA

DOWNLOAD AND ONLINE DOBOX LINK = PASSWORD = 72vu

MULTIUP

MEDIAFIRE

ONLINE 720P

 

Post a Comment

0 Comments