Samson and Delilah 1949 x264 720p Esub BluRay Dual Audio English Hindi GOPI SAHI

Samson and Delilah (1949)

 
When strongman Samson rejects the love of the beautiful Philistine woman Delilah, she seeks vengeance that brings horrible consequences they both regret.
EN

Director:

Cecil B. DeMille

Writers:

Jesse Lasky Jr. (screenplay) (as Jesse L. Lasky Jr.), Fredric M. Frank (screenplay) | 2 more credits »
 
6.8/10

6,916

Directed byCecil B. DeMille
Produced byCecil B. DeMille
Screenplay by
Based on
Starring
Music byVictor Young
CinematographyGeorge Barnes
Edited byAnne Bauchens
Color processTechnicolor
Production
company
Distributed byParamount Pictures
Release date
‹See TfM›
  • December 21, 1949 (New York City)
  • January 13, 1950 (US)
Running time
134 minutes[1] (with overture and exit music)
CountryUnited States
LanguageEnglish
Budget$2.9[2]–3.1 million[3]
Box office$25.6 million[4]

Samson and Delilah 1949 x264 720p Esub BluRay Dual Audio English Hindi GOPI SAHI


Format                         : Matroska
Format version                 : Version 4
File size                      : 1.04 GiB
Duration                       : 2 h 13 min
Overall bit rate               : 1 108 kb/s
Movie name                     : Samson and Delilah 1949 GOPI SAHI
Encoded date                   : UTC 2020-10-31 04:25:53

Video
ID                             : 1
Format                         : AVC
Format/Info                    : Advanced Video Codec
Format profile                 : [email protected]
Format settings                : CABAC / 5 Ref Frames
Format settings, CABAC         : Yes
Format settings, Reference fra : 5 frames
Codec ID                       : V_MPEG4/ISO/AVC
Duration                       : 2 h 13 min
Bit rate                       : 899 kb/s
Width                          : 1 280 pixels
Height                         : 934 pixels
Display aspect ratio           : 1.370
Frame rate mode                : Constant
Frame rate                     : 23.976 (24000/1001) FPS
Color space                    : YUV
Chroma subsampling             : 4:2:0
Bit depth                      : 8 bits
Scan type                      : Progressive
Bits/(Pixel*Frame)             : 0.031
Stream size                    : 860 MiB (81%)
Title                          : GOPI SAHI
Writing library                : x264 core 157 r2935 545de2f 

Audio #1
ID                             : 2
Format                         : AAC LC
Format/Info                    : Advanced Audio Codec Low Complexity
Codec ID                       : A_AAC-2
Duration                       : 2 h 13 min
Bit rate                       : 96.0 kb/s
Channel(s)                     : 2 channels
Channel layout                 : L R
Sampling rate                  : 48.0 kHz
Frame rate                     : 46.875 FPS (1024 SPF)
Compression mode               : Lossy
Delay relative to video        : -21 ms
Stream size                    : 92.5 MiB (9%)
Title                          : GOPI SAHI
Language                       : Hindi
Default                        : Yes
Forced                         : No

Audio #2
ID                             : 3
Format                         : AAC LC
Format/Info                    : Advanced Audio Codec Low Complexity
Codec ID                       : A_AAC-2
Duration                       : 2 h 13 min
Bit rate                       : 96.0 kb/s
Channel(s)                     : 2 channels
Channel layout                 : L R
Sampling rate                  : 48.0 kHz
Frame rate                     : 46.875 FPS (1024 SPF)
Compression mode               : Lossy
Delay relative to video        : -1 ms
Stream size                    : 92.2 MiB (9%)
Title                          : GOPI SAHI
Language                       : English
Default                        : No
Forced                         : No

Text #1
ID                             : 4
Format                         : VobSub
Muxing mode                    : zlib
Codec ID                       : S_VOBSUB
Codec ID/Info                  : Picture based subtitle format used on DVDs
Duration                       : 2 h 11 min
Bit rate                       : 11.3 kb/s
Count of elements              : 1867
Stream size                    : 10.6 MiB (1%)
Title                          : GOPI SAHI
Language                       : English
Default                        : No
Forced                         : No

Text #2
ID                             : 5
Format                         : VobSub
Muxing mode                    : zlib
Codec ID                       : S_VOBSUB
Codec ID/Info                  : Picture based subtitle format used on DVDs
Duration                       : 2 h 13 min
Bit rate                       : 9 481 b/s
Count of elements              : 1663
Stream size                    : 9.07 MiB (1%)
Language                       : Hindi
Default                        : No
Forced                         : No

Menu
00:00:00.000                   : :Chapter 1
00:05:54.312                   : :Chapter 2
00:10:41.641                   : :Chapter 3
00:15:12.954                   : :Chapter 4
00:22:09.620                   : :Chapter 5
00:30:18.025                   : :Chapter 6
00:37:39.799                   : :Chapter 7
00:46:43.634                   : :Chapter 8
00:53:55.274                   : :Chapter 9
00:59:19.681                   : :Chapter 10
01:06:13.595                   : :Chapter 11
01:15:50.212                   : :Chapter 12
01:21:30.219                   : :Chapter 13
01:26:58.922                   : :Chapter 14
01:33:23.014                   : :Chapter 15
01:38:31.489                   : :Chapter 16
01:45:48.926                   : :Chapter 17
01:50:43.804                   : :Chapter 18
01:54:13.889                   : :Chapter 19
01:59:26.743                   : :Chapter 20
02:05:21.264                   : :Chapter 21
02:11:30.925                   : :Chapter 23

 


 
 


Post a Comment

1 Comments

  1. sir please upload horrible bosses .. and Grown ups

    ReplyDelete

No Except Any Movie Request Here,Try To Donate Money For Website Then Request, If You No Donate Way Post Request Here ,Nonprofit Services, No Ads, No Any Earning, If Download Link Not Work Post a Comment On Movie Page For Re-upload, Post a Comment On Any Movie Page If You Donate For This Website, Thanks Keep Support. Any Torrent-Magnet Not Reseed,Seed Only First 30 Days,Then Use Google Drive For Download.