Sanam Teri Kasam 2016 x264 720p WebHD Esub Hindi THE GOPI SAHI

 

Sanam Teri Kasam (2016)

Not Rated | | Drama, Musical, Romance | 5 February 2016 (India)
After being disowned by her family, an awkward librarian relies on the help of her brooding neighbour.
EN

Directors:

Radhika Rao, Vinay Sapru
7.4/10

9,920

 

Directed byRadhika Rao
Vinay Sapru
Produced byDeepak Mukut
Written byRadhika Rao
Vinay Sapru
Starring
Music byHimesh Reshammiya
CinematographyChirantan Das
Production
companies
  • Jhoom Jhoom Productions
  • Soham Rockstar Productions
Distributed byEros International[1]
Release date
  • 5 February 2016 (India)
Running time
154 minutes[2]
CountryIndia
LanguageHindi
Box officeest.9 crore (US$1.3 million)[3]

 


Sanam Teri Kasam 2016 x264 720p WebHD Esub Hindi THE GOPI SAHI


Format                         : Matroska
Format version                 : Version 4
File size                      : 1.08 GiB
Duration                       : 2 h 34 min
Overall bit rate               : 998 kb/s
Movie name                     : SANAM TERI KASAM 2016 GOPISAHI
Encoded date                   : UTC 2019-11-04 07:20:46
Writing application            : mkvmerge v35.0.0 ('All The Love In The World') 64-bit
Writing library                : libebml v1.3.9 + libmatroska v1.5.2

Video
ID                             : 1
Format                         : AVC
Format/Info                    : Advanced Video Codec
Format profile                 : [email protected]
Format settings                : CABAC / 12 Ref Frames
Format settings, CABAC         : Yes
Format settings, Reference fra : 12 frames
Codec ID                       : V_MPEG4/ISO/AVC
Duration                       : 2 h 34 min
Bit rate                       : 899 kb/s
Width                          : 1 280 pixels
Height                         : 544 pixels
Display aspect ratio           : 2.35:1
Frame rate mode                : Constant
Frame rate                     : 24.000 FPS
Color space                    : YUV
Chroma subsampling             : 4:2:0
Bit depth                      : 8 bits
Scan type                      : Progressive
Bits/(Pixel*Frame)             : 0.054
Stream size                    : 995 MiB (90%)
Title                          : GOPISAHI
Writing library                : x264 core 157 r2935 545de2f

Audio
ID                             : 2
Format                         : AAC LC
Format/Info                    : Advanced Audio Codec Low Complexity
Codec ID                       : A_AAC-2
Duration                       : 2 h 34 min
Bit rate                       : 96.0 kb/s
Channel(s)                     : 2 channels
Channel layout                 : L R
Sampling rate                  : 48.0 kHz
Frame rate                     : 46.875 FPS (1024 SPF)
Compression mode               : Lossy
Delay relative to video        : -63 ms
Stream size                    : 108 MiB (10%)
Title                          : GOPISAHI
Language                       : Hindi
Default                        : Yes
Forced                         : No

Text
ID                             : 3
Format                         : UTF-8
Codec ID                       : S_TEXT/UTF8
Codec ID/Info                  : UTF-8 Plain Text
Duration                       : 2 h 31 min
Bit rate                       : 39 b/s
Count of elements              : 1538
Stream size                    : 43.7 KiB (0%)
Title                          : GOPISAHI
Language                       : English
Default                        : Yes
Forced                         : No




MAGNET

TORRENT


TORRENT 2 ZIP FILE

GDRIVE FILE COPY

DWONLOAD AUTO START IN 20 SEC ZIP FILE


DOWNLOAD AND ONLINE DOBOX LINK = PASSWORD = 5xeu

MULTIUP

MEDIAFIRE

ONLINE 720P

Post a Comment

0 Comments