The Eagle 2011 Unrated x264 720p Esub BluRay Dual Audio English Hindi THE GOPI SAHI

The Eagle (2011)

 
 
In Roman-ruled Britain, a young Roman soldier endeavors to honor his father's memory by finding his lost legion's golden emblem.
EN

Director:

Kevin Macdonald

Writers:

Jeremy Brock (screenplay), Rosemary Sutcliff (novel)
 
6.2/10
65,820

 

Directed byKevin Macdonald
Produced byDuncan Kenworthy
Screenplay byJeremy Brock
Based onThe Eagle of the Ninth
by Rosemary Sutcliff
Starring
Music byAtli Örvarsson
CinematographyAnthony Dod Mantle
Edited byJustine Wright
Production
companies
Distributed by
Release date
  • 11 February 2011 (United States)
  • 25 March 2011 (United Kingdom)
Running time
114 minutes
Countries
  • United States
  • United Kingdom
LanguageEnglish
Budget$25 million[1]
Box office$38 million[2]

 

 


      The Eagle 2011 Unrated x264 720p Esub BluRay Dual Audio English Hindi THE GOPI SAHI


Format                         : Matroska
Format version                 : Version 4
File size                      : 893 MiB
Duration                       : 1 h 54 min
Overall bit rate               : 1 094 kb/s
Movie name                     : The Eagle 2011Unrated GOPI SAHI
Encoded date                   : UTC 2021-03-06 09:17:25


Video
ID                             : 1
Format                         : AVC
Format/Info                    : Advanced Video Codec
Format profile                 : [email protected]
Format settings                : CABAC / 5 Ref Frames
Format settings, CABAC         : Yes
Format settings, Reference fra : 5 frames
Codec ID                       : V_MPEG4/ISO/AVC
Duration                       : 1 h 54 min
Bit rate                       : 899 kb/s
Width                          : 1 280 pixels
Height                         : 544 pixels
Display aspect ratio           : 2.35:1
Frame rate mode                : Constant
Frame rate                     : 23.976 (24000/1001) FPS
Color space                    : YUV
Chroma subsampling             : 4:2:0
Bit depth                      : 8 bits
Scan type                      : Progressive
Bits/(Pixel*Frame)             : 0.054
Stream size                    : 733 MiB (82%)
Title                          : GOPI SAHI
Writing library                : x264 core 157 r2935 545de2f

Audio #1
ID                             : 2
Format                         : AAC LC
Format/Info                    : Advanced Audio Codec Low Complexity
Codec ID                       : A_AAC-2
Duration                       : 1 h 54 min
Bit rate                       : 96.0 kb/s
Channel(s)                     : 2 channels
Channel layout                 : L R
Sampling rate                  : 48.0 kHz
Frame rate                     : 46.875 FPS (1024 SPF)
Compression mode               : Lossy
Delay relative to video        : -13 ms
Stream size                    : 78.7 MiB (9%)
Title                          : GOPI SAHI
Language                       : Hindi
Default                        : Yes
Forced                         : No

Audio #2
ID                             : 3
Format                         : AAC LC
Format/Info                    : Advanced Audio Codec Low Complexity
Codec ID                       : A_AAC-2
Duration                       : 1 h 54 min
Bit rate                       : 96.0 kb/s
Channel(s)                     : 2 channels
Channel layout                 : L R
Sampling rate                  : 48.0 kHz
Frame rate                     : 46.875 FPS (1024 SPF)
Compression mode               : Lossy
Delay relative to video        : -13 ms
Stream size                    : 78.7 MiB (9%)
Title                          : GOPI SAHI
Language                       : English
Default                        : No
Forced                         : No

Text #1
ID                             : 4
Format                         : UTF-8
Codec ID                       : S_TEXT/UTF8
Codec ID/Info                  : UTF-8 Plain Text
Duration                       : 1 h 37 min
Bit rate                       : 5 b/s
Count of elements              : 60
Stream size                    : 4.03 KiB (0%)
Title                          : GOPI SAHI
Language                       : Hindi
Default                        : Yes
Forced                         : No

Text #2
Language                       : English




 MAGNET

TORRENT

TORRENT 2 ZIP FILE

GDRIVE FILE COPY

DWONLOAD AUTO START IN 20 SEC ZIP FILE

DOSYA

DOWNLOAD AND ONLINE DOBOX LINK = PASSWORD = y8h4

MULTIUP

MEDIAFIRE

ONLINE 720P

 

Post a Comment

0 Comments