The Wife 2021 x264 720p WebHD Esub Hindi THE GOPI SAHI

The Wife (2021)

A | | Horror | 19 March 2021 (India)

 

 

Completed

Expected March 19, 2021
EN

Director:

Sarmad Khan

Writer:

Sarmad Khan


The Wife 2021 x264 720p WebHD Esub Hindi THE GOPI SAHI


Format                         : Matroska
Format version                 : Version 4
File size                      : 760 MiB
Duration                       : 1 h 46 min
Overall bit rate               : 997 kb/s
Movie name                     : The Wife 2021 GOPI SAHI
Encoded date                   : UTC 2021-03-19 07:33:57

Video
ID                             : 1
Format                         : AVC
Format/Info                    : Advanced Video Codec
Format profile                 : [email protected]
Format settings                : CABAC / 5 Ref Frames
Format settings, CABAC         : Yes
Format settings, Reference fra : 5 frames
Codec ID                       : V_MPEG4/ISO/AVC
Duration                       : 1 h 46 min
Bit rate                       : 899 kb/s
Width                          : 1 280 pixels
Height                         : 694 pixels
Display aspect ratio           : 1.85:1
Frame rate mode                : Constant
Frame rate                     : 25.000 FPS
Color space                    : YUV
Chroma subsampling             : 4:2:0
Bit depth                      : 8 bits
Scan type                      : Progressive
Bits/(Pixel*Frame)             : 0.040
Stream size                    : 685 MiB (90%)
Title                          : GOPI SAHI
Writing library                : x264 core 157 r2935 545de2f

Audio
ID                             : 2
Format                         : AAC LC
Format/Info                    : Advanced Audio Codec Low Complexity
Codec ID                       : A_AAC-2
Duration                       : 1 h 46 min
Bit rate                       : 96.0 kb/s
Channel(s)                     : 2 channels
Channel layout                 : L R
Sampling rate                  : 48.0 kHz
Frame rate                     : 46.875 FPS (1024 SPF)
Compression mode               : Lossy
Delay relative to video        : -21 ms
Stream size                    : 73.2 MiB (10%)
Title                          : GOPI SAHI
Language                       : Hindi


Text
Language                       : English





 MAGNET

TORRENT

TORRENT 2 ZIP FILE

GDRIVE FILE COPY


DWONLOAD AUTO START IN 20 SEC ZIP FILE

DOSYA


DOWNLOAD AND ONLINE DOBOX LINK
= PASSWORD = izw1

MULTIUP

MEDIAFIRE

ONLINE 720P


Post a Comment

0 Comments