Us 2019 x264 720p Esub BluRay Dual Audio English Hindi THE GOPI SAHI

 

Us (2019)

 
 
A family's serene beach vacation turns to chaos when their doppelgängers appear and begin to terrorize them.
EN

Director:

Jordan Peele

Writer:

Jordan Peele
 
6.8/10
232,619
Directed byJordan Peele
Produced by
Written byJordan Peele
Starring
Music byMichael Abels
CinematographyMike Gioulakis
Edited byNicholas Monsour
Production
companies
Distributed byUniversal Pictures[1]
Release date
  • March 8, 2019 (SXSW)
  • March 22, 2019 (United States)
Running time
116 minutes[2]
CountryUnited States
LanguageEnglish
Budget$20 million[3]
Box office$255.2 million[3

 

Us 2019 x264 720p Esub BluRay Dual Audio English Hindi THE GOPI SAHI

Format                         : Matroska
Format version                 : Version 4
File size                      : 932 MiB
Duration                       : 1 h 56 min
Overall bit rate               : 1 118 kb/s
Movie name                     : Us 2019 GOPI SAHI
Encoded date                   : UTC 2021-03-14 06:47:33

Video
ID                             : 1
Format                         : AVC
Format/Info                    : Advanced Video Codec
Format profile                 : [email protected]
Format settings                : CABAC / 5 Ref Frames
Format settings, CABAC         : Yes
Format settings, Reference fra : 5 frames
Codec ID                       : V_MPEG4/ISO/AVC
Duration                       : 1 h 56 min
Bit rate                       : 899 kb/s
Width                          : 1 280 pixels
Height                         : 536 pixels
Display aspect ratio           : 2.40:1
Frame rate mode                : Constant
Frame rate                     : 23.976 (24000/1001) FPS
Color space                    : YUV
Chroma subsampling             : 4:2:0
Bit depth                      : 8 bits
Scan type                      : Progressive
Bits/(Pixel*Frame)             : 0.055
Stream size                    : 749 MiB (80%)
Title                          : GOPI SAHI
Writing library                : x264 core 157 r2935 545de2f

Audio #1
ID                             : 2
Format                         : AAC LC
Format/Info                    : Advanced Audio Codec Low Complexity
Codec ID                       : A_AAC-2
Duration                       : 1 h 56 min
Bit rate                       : 96.0 kb/s
Channel(s)                     : 2 channels
Channel layout                 : L R
Sampling rate                  : 48.0 kHz
Frame rate                     : 46.875 FPS (1024 SPF)
Compression mode               : Lossy
Delay relative to video        : -21 ms
Stream size                    : 80.3 MiB (9%)
Title                          : GOPI SAHI
Language                       : Hindi
Default                        : Yes
Forced                         : No

Audio #2
ID                             : 3
Format                         : AAC LC
Format/Info                    : Advanced Audio Codec Low Complexity
Codec ID                       : A_AAC-2
Duration                       : 1 h 56 min
Bit rate                       : 96.0 kb/s
Channel(s)                     : 2 channels
Channel layout                 : L R
Sampling rate                  : 48.0 kHz
Frame rate                     : 46.875 FPS (1024 SPF)
Compression mode               : Lossy
Delay relative to video        : -21 ms
Stream size                    : 80.3 MiB (9%)
Title                          : GOPI SAHI
Language                       : English
Default                        : No
Forced                         : No

Text #1
ID                             : 4
Format                         : PGS
Muxing mode                    : zlib
Codec ID                       : S_HDMV/PGS
Codec ID/Info                  : Picture based subtitle format used on BDs/HD-DVDs
Duration                       : 1 h 55 min
Bit rate                       : 15.5 kb/s
Count of elements              : 1848
Stream size                    : 12.8 MiB (1%)
Title                          : GOPI SAHI
Language                       : Hindi
Default                        : Yes
Forced                         : Yes

Text #2
ID                             : 5
Format                         : PGS
Muxing mode                    : zlib
Codec ID                       : S_HDMV/PGS
Codec ID/Info                  : Picture based subtitle format used on BDs/HD-DVDs
Duration                       : 1 h 53 min
Bit rate                       : 35.4 kb/s
Count of elements              : 2751
Stream size                    : 28.8 MiB (3%)
Title                          : GOPI SAHI
Language                       : English
Default                        : No
Forced                         : No

Menu
00:00:00.000                   : :Chapter 1
00:06:05.156                   : :Chapter 2
00:11:25.351                   : :Chapter 3
00:17:12.114                   : :Chapter 4
00:23:24.653                   : :Chapter 5
00:29:31.520                   : :Chapter 6
00:36:07.791                   : :Chapter 7
00:41:07.757                   : :Chapter 8
00:48:08.302                   : :Chapter 9
00:55:43.257                   : :Chapter 10
01:03:00.318                   : :Chapter 11
01:07:49.357                   : :Chapter 12
01:14:25.503                   : :Chapter 13
01:20:12.016                   : :Chapter 14
01:25:25.954                   : :Chapter 15
01:29:44.045                   : :Chapter 16
01:35:21.674                   : :Chapter 17
01:40:54.549                   : :Chapter 18
01:47:36.909                   : :Chapter 19
01:52:14.394                   : :Chapter 20

Post a Comment

0 Comments