Zack Snyders Justice League 2021 x264 720p WebHD Esub THE GOPI SAHI

Zack Snyder's Justice League (2021)

 
 
Zack Snyder's definitive director's cut of Justice League. Determined to ensure Superman's ultimate sacrifice was not in vain, Bruce Wayne aligns forces with Diana Prince with plans to recruit a team of metahumans to protect the world from an approaching threat of catastrophic proportions.
EN

Director:

Zack Snyder

Writers:

Chris Terrio (screenplay by), Zack Snyder (story by) | 4 more credits »
 
8.5/10
76,998
Directed byZack Snyder
Produced by
Screenplay byChris Terrio
Story by
Based onCharacters
by DC Comics
Starring
Music byTom Holkenborg
CinematographyFabian Wagner
Edited byDavid Brenner
Production
companies
Distributed byHBO Max
Release date
  • March 18, 2021 (United States)
Running time
242 minutes
CountryUnited States
LanguageEnglish
Budget$70 million[a]


 

Zack Snyders Justice League 2021 x264 720p WebHD Esub THE GOPI SAHI

Format                         : Matroska
Format version                 : Version 4
File size                      : 1.69 GiB
Duration                       : 4 h 2 min
Overall bit rate               : 997 kb/s
Movie name                     : Zack Snyders Justice League 2021 GOPI SAHI
Encoded date                   : UTC 2021-03-20 02:21:18

Video
ID                             : 1
Format                         : AVC
Format/Info                    : Advanced Video Codec
Format profile                 : [email protected]
Format settings                : CABAC / 5 Ref Frames
Format settings, CABAC         : Yes
Format settings, Reference fra : 5 frames
Codec ID                       : V_MPEG4/ISO/AVC
Duration                       : 4 h 2 min
Bit rate                       : 899 kb/s
Width                          : 1 280 pixels
Height                         : 720 pixels
Display aspect ratio           : 16:9
Frame rate mode                : Constant
Frame rate                     : 23.976 (24000/1001) FPS
Color space                    : YUV
Chroma subsampling             : 4:2:0
Bit depth                      : 8 bits
Scan type                      : Progressive
Bits/(Pixel*Frame)             : 0.041
Stream size                    : 1.52 GiB (90%)
Title                          : GOPI SAHI
Writing library                : x264
Language                       : English
Default                        : Yes
Forced                         : No
Color range                    : Limited
Color primaries                : BT.709
Transfer characteristics       : BT.709
Matrix coefficients            : BT.709

Audio
ID                             : 2
Format                         : AAC LC
Format/Info                    : Advanced Audio Codec Low Complexity
Codec ID                       : A_AAC-2
Duration                       : 4 h 2 min
Bit rate                       : 96.0 kb/s
Channel(s)                     : 2 channels
Channel layout                 : L R
Sampling rate                  : 48.0 kHz
Frame rate                     : 46.875 FPS (1024 SPF)
Compression mode               : Lossy
Delay relative to video        : -21 ms
Stream size                    : 167 MiB (10%)
Language                       : English

Text
Language                       : English





MAGNET

TORRENT

TORRENT 2 ZIP FILE

GDRIVE FILE COPY

DWONLOAD AUTO START IN 20 SEC ZIP FILE

DOWNLOAD AND ONLINE DOBOX LINK = PASSWORD = udq6

MULTIUP

MEDIAFIRE

ONLINE 720P
 

Post a Comment

0 Comments