10 Cloverfield Lane 2016 x264 720p Esub BluRay Dual Audio English Hindi THE GOPI SAHI

10 Cloverfield Lane (2016)

PG-13 | | Action, Drama, Horror | 11 March 2016 (USA)
 
After getting in a car accident, a woman is held in a shelter by a man who claims that the outside world is affected by a widespread chemical attack.
EN

Director:

Dan Trachtenberg

Writers:

Josh Campbell (screenplay by), Matthew Stuecken (screenplay by) | 3 more credits »
 
 
7.2/10
295,005
 
Directed byDan Trachtenberg
Produced by
Screenplay by
Story by
  • Josh Campbell
  • Matt Stuecken
Starring
Music byBear McCreary
CinematographyJeff Cutter
Edited byStefan Grube
Production
company
Distributed byParamount Pictures
Release date
Running time
104 minutes[1]
CountryUnited States
LanguageEnglish
Budget$13–15 million[2][3][4]
Box office$110.2 million[5]




10 Cloverfield Lane 2016 x264 720p Esub BluRay Dual Audio English Hindi THE GOPI SAHI

Format                         : Matroska
Format version                 : Version 4
File size                      : 1 008 MiB
Duration                       : 1 h 43 min
Overall bit rate               : 1 361 kb/s
Movie name                     : 10 Cloverfield Lane 2016 GOPI SAHI
Encoded date                   : UTC 2021-04-26 13:52:50

Video
ID                             : 1
Format                         : AVC
Format/Info                    : Advanced Video Codec
Format profile                 : [email protected]
Format settings                : CABAC / 5 Ref Frames
Format settings, CABAC         : Yes
Format settings, Reference fra : 5 frames
Codec ID                       : V_MPEG4/ISO/AVC
Duration                       : 1 h 43 min
Bit rate                       : 899 kb/s
Width                          : 1 280 pixels
Height                         : 534 pixels
Display aspect ratio           : 2.40:1
Frame rate mode                : Constant
Frame rate                     : 23.976 (24000/1001) FPS
Color space                    : YUV
Chroma subsampling             : 4:2:0
Bit depth                      : 8 bits
Scan type                      : Progressive
Bits/(Pixel*Frame)             : 0.055
Stream size                    : 665 MiB (66%)
Title                          : GOPI SAHI
Writing library                : x264 core 157 r2935 545de2f

Audio #1
ID                             : 2
Format                         : AAC LC
Format/Info                    : Advanced Audio Codec Low Complexity
Codec ID                       : A_AAC-2
Duration                       : 1 h 43 min
Bit rate                       : 255 kb/s
Channel(s)                     : 8 channels
Channel layout                 : C L R Ls Rs Lw Rw LFE
Sampling rate                  : 48.0 kHz
Frame rate                     : 46.875 FPS (1024 SPF)
Compression mode               : Lossy
Delay relative to video        : -1 ms
Stream size                    : 189 MiB (19%)
Title                          : GOPI SAHI
Language                       : English
Default                        : Yes
Forced                         : No

Audio #2
ID                             : 3
Format                         : AAC LC
Format/Info                    : Advanced Audio Codec Low Complexity
Codec ID                       : A_AAC-2
Duration                       : 1 h 43 min
Bit rate                       : 192 kb/s
Channel(s)                     : 6 channels
Channel layout                 : L R C Cb Lb Rb
Sampling rate                  : 48.0 kHz
Frame rate                     : 46.875 FPS (1024 SPF)
Compression mode               : Lossy
Delay relative to video        : 7 s 698 ms
Stream size                    : 142 MiB (14%)
Title                          : GOPI SAHI
Language                       : Hindi
Default                        : No
Forced                         : No

Text #1
ID                             : 4
Format                         : PGS
Muxing mode                    : zlib
Codec ID                       : S_HDMV/PGS
Codec ID/Info                  : Picture based subtitle format used on BDs/HD-DVDs
Duration                       : 1 h 32 min
Bit rate                       : 23.0 kb/s
Count of elements              : 1644
Stream size                    : 15.3 MiB (2%)
Title                          : GOPI SAHI
Language                       : English
Default                        : Yes
Forced                         : Yes

Text #2
ID                             : 5
Format                         : PGS
Muxing mode                    : zlib
Codec ID                       : S_HDMV/PGS
Codec ID/Info                  : Picture based subtitle format used on BDs/HD-DVDs
Duration                       : 1 h 39 min
Bit rate                       : 17.5 kb/s
Count of elements              : 1682
Stream size                    : 12.4 MiB (1%)
Title                          : GOPI SAHI
Language                       : Hindi
Default                        : No
Forced                         : No

Menu
00:00:00.000                   : :Chapter 1
00:05:55.939                   : :Chapter 2
00:14:52.517                   : :Chapter 3
00:19:18.157                   : :Chapter 4
00:24:12.201                   : :Chapter 5
00:32:21.940                   : :Chapter 6
00:42:59.327                   : :Chapter 7
00:47:47.782                   : :Chapter 8
00:53:37.089                   : :Chapter 9
00:57:00.626                   : :Chapter 10
01:03:11.079                   : :Chapter 11
01:11:20.193                   : :Chapter 12
01:15:49.420                   : :Chapter 13
01:24:21.265                   : :Chapter 14
01:28:19.169                   : :Chapter 15
01:37:31.596                   : :Chapter 16





 


Post a comment

0 Comments