+18 Jailbait 2014 UNRATED x264 720p Esub HD Dual Audio English Hindi GOPI SAHI

Jailbait (2014)

TV-MA | | Crime, Drama, Romance | Video 18 February 2014
 
 
Anna Nix is sent to a juvenile prison for the murder of her abusive stepfather. In the prison, she discovers relationships, drugs, complex mental illness, and her eventual search for redemption.
EN

Director:

Jared Cohn

Writer:

Jared Cohn (screenplay)
 
4.2/10
3,398

 

Directed byBrett C. Leonard
Produced byRene Bastion
Written byBrett C. Leonard
StarringMichael Pitt
Stephen Adly Guirgis
Distributed byWarner Bros.
Lightyear Entertainment
Release date
  • May 3, 2004 (Tribeca Film Festival)
  • August 4, 2006 (United States)
Running time
89 minutes
CountryUnited States
LanguageEnglish


Jailbait 2014 UNRATED x264 720p Esub HD Dual Audio English Hindi GOPI SAHI


Format                         : Matroska
Format version                 : Version 4
File size                      : 701 MiB
Duration                       : 1 h 29 min
Overall bit rate               : 1 094 kb/s
Movie name                     : Jailbait 2014 UNRATED GOPI SAHI
Encoded date                   : UTC 2021-03-25 16:33:31

Video
ID                             : 1
Format                         : AVC
Format/Info                    : Advanced Video Codec
Format profile                 : [email protected]
Format settings                : CABAC / 5 Ref Frames
Format settings, CABAC         : Yes
Format settings, Reference fra : 5 frames
Codec ID                       : V_MPEG4/ISO/AVC
Duration                       : 1 h 29 min
Bit rate                       : 899 kb/s
Width                          : 1 280 pixels
Height                         : 720 pixels
Display aspect ratio           : 16:9
Frame rate mode                : Constant
Frame rate                     : 23.976 (24000/1001) FPS
Color space                    : YUV
Chroma subsampling             : 4:2:0
Bit depth                      : 8 bits
Scan type                      : Progressive
Bits/(Pixel*Frame)             : 0.041
Stream size                    : 576 MiB (82%)
Title                          : GOPI SAHI
Writing library                : x264 core 157 r2935 545de2f

Audio #1
ID                             : 2
Format                         : AAC LC
Format/Info                    : Advanced Audio Codec Low Complexity
Codec ID                       : A_AAC-2
Duration                       : 1 h 29 min
Bit rate                       : 96.0 kb/s
Channel(s)                     : 2 channels
Channel layout                 : L R
Sampling rate                  : 44.1 kHz
Frame rate                     : 43.066 FPS (1024 SPF)
Compression mode               : Lossy
Delay relative to video        : -23 ms
Stream size                    : 61.8 MiB (9%)
Title                          : GOPI SAHI
Language                       : Hindi
Default                        : Yes
Forced                         : No

Audio #2
ID                             : 3
Format                         : AAC LC
Format/Info                    : Advanced Audio Codec Low Complexity
Codec ID                       : A_AAC-2
Duration                       : 1 h 29 min
Bit rate                       : 96.0 kb/s
Channel(s)                     : 2 channels
Channel layout                 : L R
Sampling rate                  : 48.0 kHz
Frame rate                     : 46.875 FPS (1024 SPF)
Compression mode               : Lossy
Delay relative to video        : -21 ms
Stream size                    : 61.9 MiB (9%)
Title                          : GOPI SAHI
Language                       : English
Default                        : No
Forced                         : No

Text
Language                       : English




MAGNET

TORRENT

TORRENT 2 ZIP FILE

GDRIVE FILE COPY


DWONLOAD AUTO START IN 20 SEC ZIP FILE

DOWNLOAD AND ONLINE DUBOX LINK = PASSWORD = vyj9

MULTIUP

MEDIAFIRE

ONLINE 720P

 

Post a Comment

0 Comments