Death Becomes Her 1992 CE x264 720p Esub BluRay Dual Audio English Hindi GOPI SAHI

 

Death Becomes Her (1992)

PG-13 | | Comedy, Fantasy, Horror | 31 July 1992 (USA) 
 
When a woman learns of an immortality treatment, she sees it as a way to outdo her long-time rival.
EN

Director:

Robert Zemeckis
 
6.6/10

105,759

 

Directed byRobert Zemeckis
Produced byRobert Zemeckis
Steve Starkey
Written byMartin Donovan
David Koepp
Starring
Music byAlan Silvestri
CinematographyDean Cundey
Edited byArthur Schmidt
Production
company
Distributed byUniversal Pictures[1]
Release date
  • July 31, 1992
Running time
104 minutes[1]
CountryUnited States[1]
LanguageEnglish
Budget$55 million[2]
Box office$149 million[2]



Death Becomes Her 1992 CE x264 720p Esub BluRay Dual Audio English Hindi GOPI SAHI


Format                         : Matroska
Format version                 : Version 4
File size                      : 817 MiB
Duration                       : 1 h 43 min
Overall bit rate               : 1 104 kb/s
Movie name                     : Death Becomes Her 1992 CE GOPI SAHI
Encoded date                   : UTC 2021-04-10 07:59:26
Video
ID                             : 1
Format                         : AVC
Format/Info                    : Advanced Video Codec
Format profile                 : [email protected]
Format settings                : CABAC / 5 Ref Frames
Format settings, CABAC         : Yes
Format settings, Reference fra : 5 frames
Codec ID                       : V_MPEG4/ISO/AVC
Duration                       : 1 h 43 min
Bit rate                       : 899 kb/s
Width                          : 1 280 pixels
Height                         : 694 pixels
Display aspect ratio           : 1.85:1
Frame rate mode                : Constant
Frame rate                     : 23.976 (24000/1001) FPS
Color space                    : YUV
Chroma subsampling             : 4:2:0
Bit depth                      : 8 bits
Scan type                      : Progressive
Bits/(Pixel*Frame)             : 0.042
Stream size                    : 664 MiB (81%)
Title                          : GOPI SAHI
Writing library                : x264 core 157 r2935 545de2f

Audio #1
ID                             : 2
Format                         : AAC LC
Format/Info                    : Advanced Audio Codec Low Complexity
Codec ID                       : A_AAC-2
Duration                       : 1 h 43 min
Bit rate                       : 96.0 kb/s
Channel(s)                     : 2 channels
Channel layout                 : L R
Sampling rate                  : 48.0 kHz
Frame rate                     : 46.875 FPS (1024 SPF)
Compression mode               : Lossy
Delay relative to video        : 23 ms
Stream size                    : 71.4 MiB (9%)
Title                          : GOPI SAHI
Language                       : Hindi
Default                        : Yes
Forced                         : No

Audio #2
ID                             : 3
Format                         : AAC LC
Format/Info                    : Advanced Audio Codec Low Complexity
Codec ID                       : A_AAC-2
Duration                       : 1 h 43 min
Bit rate                       : 96.0 kb/s
Channel(s)                     : 2 channels
Channel layout                 : L R
Sampling rate                  : 48.0 kHz
Frame rate                     : 46.875 FPS (1024 SPF)
Compression mode               : Lossy
Delay relative to video        : -21 ms
Stream size                    : 71.3 MiB (9%)
Title                          : GOPI SAHI
Language                       : English
Default                        : No
Forced                         : No

Text #1
ID                             : 4
Format                         : PGS
Muxing mode                    : zlib
Codec ID                       : S_HDMV/PGS
Codec ID/Info                  : Picture based subtitle format used on BDs/HD-DVDs
Duration                       : 1 h 42 min
Bit rate                       : 822 b/s
Count of elements              : 114
Stream size                    : 617 KiB (0%)
Title                          : GOPI SAHI
Language                       : Hindi
Default                        : Yes
Forced                         : No

Text #2
Language                       : English

Menu
00:00:00.000                   : :Main Titles: Broadway 1978
00:05:04.513                   : :Mad and Hel
00:09:01.541                   : :7 Years Later
00:12:35.380                   : :Another 7 Years Later
00:20:40.906                   : :Helen's Party
00:26:46.939                   : :Secret Plots and Second Thoughts
00:30:20.110                   : :Lisle
00:47:09.243                   : :The Fall and Rise of Madeline Ashton
00:55:55.269                   : :A Medical Miracle
01:05:51.656                   : :Helen Has a Blast
01:09:55.858                   : :Gut Reactions
01:15:40.953                   : :Touch-Ups
01:25:01.888                   : :The Party
01:32:54.402                   : :37 Years Later
01:36:13.226                   : :Going to Pieces
01:37:35.641                   : :End Titles



 

MAGNET

TORRENT


TORRENT 2 ZIP FILE

GDRIVE FILE COPY

DWONLOAD AUTO START IN 20 SEC ZIP FILE


DOWNLOAD AND ONLINE DUBOX LINK = PASSWORD = 3ud3

MULTIUP

MEDIAFIRE

ONLINE 720P

 

Post a Comment

0 Comments