Hello Charlie 2021 x264 720p WebHD Esub Hindi THE GOPI SAHI


Hello Charlie (2021)

7 | | Comedy | 9 April 2021 (India)
 
 
Charlie a young simpleton, currently a day dreaming pizza delivery boy, who later finds himself driving a truck to deliver a gorilla to the jetty at Porbandar. What he does not know is that... See full summary »
EN

Writers:

Abhishek Khairkar (dialogue), Pankaj Saraswat
 
6.4/10
20

 


Hello Charlie 2021 x264 720p WebHD Esub Hindi THE GOPI SAHI


Format                         : Matroska
Format version                 : Version 4
File size                      : 728 MiB
Duration                       : 1 h 42 min
Overall bit rate               : 997 kb/s
Movie name                     : Hello Charlie 2021 GOPI SAHI
Encoded date                   : UTC 2021-04-09 14:47:59
Writing application            : mkvmerge v52.0.0 ('Secret For The Mad') 64-bit
Writing library                : libebml v1.4.1 + libmatroska v1.6.2

Video
ID                             : 1
Format                         : AVC
Format/Info                    : Advanced Video Codec
Format profile                 : [email protected]
Format settings                : CABAC / 5 Ref Frames
Format settings, CABAC         : Yes
Format settings, Reference fra : 5 frames
Codec ID                       : V_MPEG4/ISO/AVC
Duration                       : 1 h 42 min
Bit rate                       : 899 kb/s
Width                          : 1 280 pixels
Height                         : 544 pixels
Display aspect ratio           : 2.35:1
Frame rate mode                : Constant
Frame rate                     : 24.000 FPS
Color space                    : YUV
Chroma subsampling             : 4:2:0
Bit depth                      : 8 bits
Scan type                      : Progressive
Bits/(Pixel*Frame)             : 0.054
Stream size                    : 656 MiB (90%)
Title                          : GOPI SAHI
Writing library                : x264 core 157 r2935 545de2f


Audio
ID                             : 2
Format                         : AAC LC
Format/Info                    : Advanced Audio Codec Low Complexity
Codec ID                       : A_AAC-2
Duration                       : 1 h 42 min
Bit rate                       : 96.0 kb/s
Channel(s)                     : 2 channels
Channel layout                 : L R
Sampling rate                  : 48.0 kHz
Frame rate                     : 46.875 FPS (1024 SPF)
Compression mode               : Lossy
Delay relative to video        : -21 ms
Stream size                    : 69.9 MiB (10%)
Title                          : GOPI SAHI
Language                       : Hindi
Default                        : Yes
Forced                         : No

Text
Language                       : English






Post a Comment

0 Comments