I Am Legend 2007 TC x264 720p Esub BluRay Dual Audio English Hindi GOPI SAHI

I Am Legend (2007)

 
 
Years after a plague kills most of humanity and transforms the rest into monsters, the sole survivor in New York City struggles valiantly to find a cure.
EN

Director:

Francis Lawrence

Writers:

Mark Protosevich (screenplay), Akiva Goldsman (screenplay) | 3 more credits »
 
7.2/10
694,184


 

Directed byFrancis Lawrence
Produced by
Screenplay by
Based onI Am Legend
by Richard Matheson
Starring
Music byJames Newton Howard
CinematographyAndrew Lesnie
Edited byWayne Wahrman
Production
companies
Distributed byWarner Bros. Pictures
Release date
  • December 14, 2007 (United States)
Running time
101 minutes
CountryUnited States[1][2]
LanguageEnglish
Budget$150 million[3]
Box office$585.3 million[3]


 I Am Legend 2007 TC x264 720p Esub BluRay Dual Audio English Hindi GOPI SAHI

Format                         : Matroska
Format version                 : Version 4
File size                      : 793 MiB
Duration                       : 1 h 40 min
Overall bit rate               : 1 104 kb/s
Movie name                     : I Am Legend 2007 TC GOPI SAHI
Encoded date                   : UTC 2021-04-19 14:04:38

Video
ID                             : 1
Format                         : AVC
Format/Info                    : Advanced Video Codec
Format profile                 : [email protected]
Format settings                : CABAC / 5 Ref Frames
Format settings, CABAC         : Yes
Format settings, Reference fra : 5 frames
Codec ID                       : V_MPEG4/ISO/AVC
Duration                       : 1 h 40 min
Bit rate                       : 899 kb/s
Width                          : 1 280 pixels
Height                         : 534 pixels
Display aspect ratio           : 2.40:1
Frame rate mode                : Constant
Frame rate                     : 23.976 (24000/1001) FPS
Color space                    : YUV
Chroma subsampling             : 4:2:0
Bit depth                      : 8 bits
Scan type                      : Progressive
Bits/(Pixel*Frame)             : 0.055
Stream size                    : 646 MiB (81%)
Title                          : GOPI SAHI
Writing library                : x264 core 157 r2935 545de2f

Audio #1
ID                             : 2
Format                         : AAC LC
Format/Info                    : Advanced Audio Codec Low Complexity
Codec ID                       : A_AAC-2
Duration                       : 1 h 40 min
Bit rate                       : 96.0 kb/s
Channel(s)                     : 2 channels
Channel layout                 : L R
Sampling rate                  : 48.0 kHz
Frame rate                     : 46.875 FPS (1024 SPF)
Compression mode               : Lossy
Delay relative to video        : -21 ms
Stream size                    : 69.2 MiB (9%)
Title                          : GOPI SAHI
Language                       : Hindi
Default                        : Yes
Forced                         : No

Audio #2
ID                             : 3
Format                         : AAC LC
Format/Info                    : Advanced Audio Codec Low Complexity
Codec ID                       : A_AAC-2
Duration                       : 1 h 40 min
Bit rate                       : 96.0 kb/s
Channel(s)                     : 2 channels
Channel layout                 : L R
Sampling rate                  : 48.0 kHz
Frame rate                     : 46.875 FPS (1024 SPF)
Compression mode               : Lossy
Delay relative to video        : -21 ms
Stream size                    : 69.2 MiB (9%)
Title                          : GOPI SAHI
Language                       : English
Default                        : No
Forced                         : No

Text
ID                             : 4
Format                         : PGS
Language                       : English

Menu
00:00:00.000                   : :Miracle Cure
00:02:14.176                   : :Fellow Hunters
00:07:56.518                   : :In for the Night
00:12:07.477                   : :Ground Zero
00:15:15.706                   : :Animal Trials
00:18:20.099                   : :Shop and Forage
00:23:22.526                   : :Seaport at Midday
00:26:42.184                   : :Race to the Light
00:31:49.282                   : :Mutant Trap
00:34:15.595                   : :Test Subject
00:37:45.805                   : :Fishing in the Dark
00:39:16.145                   : :Evacuation
00:44:06.644                   : :Man Trap
00:48:51.095                   : :Dogs of Sundown
00:53:12.731                   : :Farewell to a Friend
00:56:54.786                   : :Please Say Hello
00:59:41.453                   : :Swarm of the Infected
01:02:41.091                   : :Family Tragedy
01:04:30.658                   : :Anna and Ethan
01:09:18.488                   : :Verbatim
01:11:22.028                   : :Marley's Namesake
01:17:38.779                   : :God Told Me
01:20:14.935                   : :Home Invasion
01:24:10.921                   : :I Can Save You
01:27:59.691                   : :Exit Strategy
01:29:48.133                   : :His Legend
01:31:48.003                   : :End Credits




MAGNET

TORRENT

TORRENT 2 ZIP FILE

GDRIVE FILE COPY

DWONLOAD AUTO START IN 20 SEC ZIP FILE

DOWNLOAD AND ONLINE DUBOX LINK = PASSWORD = 36y4

MULTIUP

MEDIAFIRE

ONLINE 720P

 

Post a Comment

0 Comments