Jodhaa Akbar 2008 x264 720p Esub BluRay Hindi Telugu Tamil THE GOPI SAHI

 

Jodhaa Akbar (2008)

Not Rated | | Action, Drama, History | 15 February 2008 (USA

 

A sixteenth century love story about a marriage of alliance that gave birth to true love between a great Mughal emperor, Akbar, and a Rajput princess, Jodha.
EN

Director:

Ashutosh Gowariker

Writers:

Haidar Ali (story), Haidar Ali (screenplay) | 3 more credits »
 
7.6/10

30,207

 

Directed byAshutosh Gowariker
Produced byRonnie Screwvala
Ashutosh Gowariker
Written byK. P. Saxena (dialogue)
Screenplay byHaidar Ali
Ashutosh Gowariker
Story byHaidar Ali
StarringHrithik Roshan
Aishwarya Rai Bachchan
Sonu Sood
Kulbhushan Kharbanda
Ila Arun
Narrated byAmitabh Bachchan
Music byA. R. Rahman
CinematographyKiran Deohans
Edited byBallu Saluja
Production
company
Ashutosh Gowariker Productions Private Limited
Distributed byUTV Motion Pictures
Release date
  • 15 February 2008
Running time
214 minutes
CountryIndia
LanguagesUrdu
Hindi
Budget400 million[1]
Box officeest.1.2 billion[2][3]

 


 Jodhaa Akbar 2008 x264 720p Esub BluRay Hindi Telugu Tamil THE GOPI SAHI


Format                         : Matroska
Format version                 : Version 4
File size                      : 1.79 GiB
Duration                       : 3 h 33 min
Overall bit rate               : 1 198 kb/s
Movie name                     : Jodhaa Akbar 2008 GOPISAHI
Encoded date                   : UTC 2020-04-01 04:56:09

Video
ID                             : 4
Format                         : AVC
Format/Info                    : Advanced Video Codec
Format profile                 : [email protected]
Format settings                : CABAC / 4 Ref Frames
Format settings, CABAC         : Yes
Format settings, Reference fra : 4 frames
Codec ID                       : V_MPEG4/ISO/AVC
Duration                       : 3 h 33 min
Bit rate                       : 905 kb/s
Width                          : 1 280 pixels
Height                         : 544 pixels
Display aspect ratio           : 2.35:1
Frame rate mode                : Constant
Frame rate                     : 24.000 FPS
Color space                    : YUV
Chroma subsampling             : 4:2:0
Bit depth                      : 8 bits
Scan type                      : Progressive
Bits/(Pixel*Frame)             : 0.054
Stream size                    : 1.35 GiB (76%)
Title                          : GOPISAHI
Writing library                : x264 core 148 r2744 b97ae06

Audio #1
ID                             : 1
Format                         : AAC LC
Format/Info                    : Advanced Audio Codec Low Complexity
Codec ID                       : A_AAC-2
Duration                       : 3 h 33 min
Bit rate                       : 96.0 kb/s
Channel(s)                     : 2 channels
Channel layout                 : L R
Sampling rate                  : 48.0 kHz
Frame rate                     : 46.875 FPS (1024 SPF)
Compression mode               : Lossy
Delay relative to video        : 2 ms
Stream size                    : 148 MiB (8%)
Title                          : GOPISAHI
Language                       : Hindi
Default                        : Yes
Forced                         : No

Audio #2
ID                             : 2
Format                         : AAC LC
Format/Info                    : Advanced Audio Codec Low Complexity
Codec ID                       : A_AAC-2
Duration                       : 3 h 33 min
Bit rate                       : 96.0 kb/s
Channel(s)                     : 2 channels
Channel layout                 : L R
Sampling rate                  : 48.0 kHz
Frame rate                     : 46.875 FPS (1024 SPF)
Compression mode               : Lossy
Delay relative to video        : 2 ms
Stream size                    : 147 MiB (8%)
Title                          : GOPISAHI
Language                       : Telugu
Default                        : No
Forced                         : No

Audio #3
ID                             : 3
Format                         : AAC LC
Format/Info                    : Advanced Audio Codec Low Complexity
Codec ID                       : A_AAC-2
Duration                       : 3 h 33 min
Bit rate                       : 96.0 kb/s
Channel(s)                     : 2 channels
Channel layout                 : L R
Sampling rate                  : 48.0 kHz
Frame rate                     : 46.875 FPS (1024 SPF)
Compression mode               : Lossy
Stream size                    : 148 MiB (8%)
Title                          : GOPISAHI
Language                       : Tamil
Default                        : No
Forced                         : No

Text
Language                       : English



 

MAGNET

TORRENT

TORRENT 2 ZIP FILE

GDRIVE FILE COPY

DWONLOAD AUTO START IN 20 SEC ZIP FILE

DOWNLOAD AND ONLINE DUBOX LINK = PASSWORD = cx9v

MULTIUP

MEDIAFIRE

ONLINE 720P

 

Post a Comment

0 Comments