Kingsman The Secret Service 2014 x264 720p Esub BluRay Dual Audio English Hindi THE GOPI SAHI

Kingsman: The Secret Service (2014)

 
 
A spy organisation recruits a promising street kid into the agency's training program, while a global threat emerges from a twisted tech genius.
EN

Director:

Matthew Vaughn

Writers:

Jane Goldman (screenplay by), Matthew Vaughn (screenplay by) | 2 more credits »
 
7.7/10
597,858

 

Directed byMatthew Vaughn
Produced by
Screenplay by
Based on
Starring
Music by
CinematographyGeorge Richmond
Edited by
Production
companies
Distributed by20th Century Fox
Release date
  • 13 December 2014 (Butt-Numb-A-Thon)
  • 29 January 2015 (United Kingdom)
  • 13 February 2015 (United States)
Running time
129 minutes[1]
Countries
  • United Kingdom
  • United States[2]
LanguageEnglish
Budget$81 million[3][4]
Box office$414.4 million[4]


Kingsman The Secret Service 2014 x264 720p Esub BluRay Dual Audio English Hindi THE GOPI SAHI

Format                         : Matroska
Format version                 : Version 4
File size                      : 1 015 MiB
Duration                       : 2 h 9 min
Overall bit rate               : 1 097 kb/s
Movie name                     : Kingsman The Secret Service 2014 GOPI SAHI
Encoded date                   : UTC 2020-06-19 13:43:44

Video
ID                             : 1
Format                         : AVC
Format/Info                    : Advanced Video Codec
Format profile                 : [email protected]
Format settings                : CABAC / 5 Ref Frames
Format settings, CABAC         : Yes
Format settings, Reference fra : 5 frames
Codec ID                       : V_MPEG4/ISO/AVC
Duration                       : 2 h 8 min
Bit rate                       : 899 kb/s
Width                          : 1 280 pixels
Height                         : 534 pixels
Display aspect ratio           : 2.40:1
Frame rate mode                : Constant
Frame rate                     : 23.976 (24000/1001) FPS
Color space                    : YUV
Chroma subsampling             : 4:2:0
Bit depth                      : 8 bits
Scan type                      : Progressive
Bits/(Pixel*Frame)             : 0.055
Stream size                    : 828 MiB (82%)
Title                          : GOPI SAHI
Writing library                : x264 core 157 r2935 545de2f

Audio #1
ID                             : 2
Format                         : AAC LC
Format/Info                    : Advanced Audio Codec Low Complexity
Codec ID                       : A_AAC-2
Duration                       : 2 h 9 min
Bit rate                       : 96.0 kb/s
Channel(s)                     : 2 channels
Channel layout                 : L R
Sampling rate                  : 48.0 kHz
Frame rate                     : 46.875 FPS (1024 SPF)
Compression mode               : Lossy
Delay relative to video        : 988 ms
Stream size                    : 88.7 MiB (9%)
Title                          : GOPI SAHI
Language                       : Hindi
Default                        : Yes
Forced                         : No

Audio #2
ID                             : 3
Format                         : AAC LC
Format/Info                    : Advanced Audio Codec Low Complexity
Codec ID                       : A_AAC-2
Duration                       : 2 h 8 min
Bit rate                       : 96.0 kb/s
Channel(s)                     : 2 channels
Channel layout                 : L R
Sampling rate                  : 48.0 kHz
Frame rate                     : 46.875 FPS (1024 SPF)
Compression mode               : Lossy
Delay relative to video        : -21 ms
Stream size                    : 88.8 MiB (9%)
Title                          : GOPI SAHI
Language                       : English
Default                        : No
Forced                         : No

Text
ID                             : 4
Format                         : VobSub
Muxing mode                    : zlib
Codec ID                       : S_VOBSUB
Codec ID/Info                  : Picture based subtitle format used on DVDs
Duration                       : 2 h 7 min
Bit rate                       : 12.8 kb/s
Count of elements              : 2122
Stream size                    : 11.7 MiB (1%)
Title                          : GOPI SAHI
Language                       : English
Default                        : Yes
Forced                         : Yes




 MAGNET

TORRENT

TORRENT 2 ZIP FILE


GDRIVE FILE COPY

DWONLOAD AUTO START IN 20 SEC ZIP FILE

DOWNLOAD AND ONLINE DUBOX LINK = PASSWORD = 8qjk

MULTIUP

MEDIAFIRE

ONLINE 720P

Post a Comment

0 Comments